<?xml version="1.0" standalone="no"?>
<!DOCTYPE svg PUBLIC "-//W3C//DTD SVG 1.1//EN" "http://www.w3.org/Graphics/SVG/1.1/DTD/svg11.dtd" >
<!--
2015-6-24: Created.
-->
<svg xmlns="http://www.w3.org/2000/svg">
<metadata>
Created by FontForge 20120731 at Wed Jun 24 00:32:46 2015
 By P.J. Onori
Created by P.J. Onori with FontForge 2.0 (http://fontforge.sf.net)
</metadata>
<defs>
<font id="iconic-lg" horiz-adv-x="12800" >
  <font-face 
    font-family="Iconic"
    font-weight="400"
    font-stretch="normal"
    units-per-em="12800"
    panose-1="2 0 5 3 0 0 0 0 0 0"
    ascent="12800"
    descent="0"
    bbox="-1.46293 -101 12810 12800"
    underline-thickness="50"
    underline-position="-100"
    unicode-range="U+E000-E26F"
  />
    <missing-glyph />
    <glyph glyph-name="0" unicode="&#xe000;" 
d="M4200 12800h8600v-12800h-8600v800h7800v11200h-7800v800zM6800 7650c0 87 66 106 131 69l2138 -1238c70 -50 70 -110 0 -150l-2138 -1250c-70 -50 -131 -11 -131 69v850h-6800v800h6800v850z" />
    <glyph glyph-name="1" unicode="&#xe001;" 
d="M4121 12800h8600v-12800h-8600v800h7800v11200h-7800v800zM2190 7709c59 42 131 23 131 -68v-841h6800v-800h-6800v-859c0 -80 -61 -112 -131 -72l-2138 1250c-70 50 -70 112 0 162z" />
    <glyph glyph-name="2" unicode="&#xe002;" 
d="M5894 11100c3260 0 5900 -2640 5900 -5900v-491h850c80 0 108 -58 68 -128l-1837 -2950c-40 -70 -123 -70 -163 0l-1837 2950c-40 70 -11 128 69 128h850v491c0 2710 -2190 4900 -4900 4900c-2625 0 -4763 -2055 -4894 -4647c133 3142 2719 5647 5894 5647z" />
    <glyph glyph-name="3" unicode="&#xe003;" 
d="M6837 11100c3175 0 5760 -2505 5893 -5647c-131 2592 -2268 4647 -4893 4647c-2710 0 -4900 -2190 -4900 -4900v-500h850c80 0 108 -61 68 -131l-1837 -2938c-40 -70 -123 -70 -163 0l-1837 2938c-40 70 -11 131 69 131h850v500c0 3260 2640 5900 5900 5900z" />
    <glyph glyph-name="4" unicode="&#xe004;" 
d="M0 10700h12800v-800h-12800v800zM1900 8100h9000v-800h-9000v800zM0 5500h12800v-800h-12800v800zM1900 2900h9000v-800h-9000v800z" />
    <glyph glyph-name="5" unicode="&#xe005;" 
d="M0 10700h12800v-800h-12800v800zM0 8100h9000v-800h-9000v800zM0 5500h12800v-800h-12800v800zM0 2900h9000v-800h-9000v800z" />
    <glyph glyph-name="6" unicode="&#xe006;" 
d="M0 10700h12800v-800h-12800v800zM3800 8100h9000v-800h-9000v800zM0 5500h12800v-800h-12800v800zM3800 2900h9000v-800h-9000v800z" />
    <glyph glyph-name="7" unicode="&#xe007;" 
d="M6400 12800c301 0 598 -22 888 -62l-3544 -6138l-2253 3903c1174 1403 2937 2297 4909 2297zM7500 12703c2202 -381 4017 -1885 4834 -3903h-7090zM1356 10338l3544 -6138h-4512c-251 686 -388 1427 -388 2200c0 1485 507 2852 1356 3938zM7900 8600h4513
c251 -686 387 -1427 387 -2200c0 -1485 -507 -2852 -1356 -3938zM9056 6200l2254 -3903c-1174 -1403 -2938 -2297 -4910 -2297c-301 0 -597 22 -887 62zM5300 97c-2201 381 -4017 1886 -4834 3903h7090z" />
    <glyph glyph-name="8" unicode="&#xe008;" horiz-adv-x="2800" 
d="M950 12700h1h800v-9600h850c80 0 120 -60 90 -140l-1281 -2919c-30 -80 -89 -80 -119 -10l-1281 2928c-30 80 10 141 90 141h850v9600z" />
    <glyph glyph-name="9" unicode="&#xe009;" horiz-adv-x="2800" 
d="M960 12700h800v-9766l869 497c80 40 111 8 81 -72l-950 -2425v-34h-12l-338 -859c-30 -80 -69 -80 -109 0l-335 859h-6v16l-950 2443c-30 80 11 112 81 72l869 -497v9766z" />
    <glyph glyph-name="10" unicode="&#xe00a;" horiz-adv-x="4000" 
d="M1550 12700h801v-8200h1450c80 0 120 -61 90 -141l-1881 -4318c-30 -80 -89 -80 -119 0l-1881 4318c-30 80 10 141 90 141h1450v8200z" />
    <glyph glyph-name="11" unicode="&#xe00b;" horiz-adv-x="4000" 
d="M1552 12700h800v-8769l1469 888c70 40 102 20 72 -60c-627 -1573 -1258 -3143 -1882 -4719c-40 -80 -79 -80 -109 0l-344 860h-6v16l-1541 3843c-30 70 2 100 72 60l1469 -888v8769z" />
    <glyph glyph-name="12" unicode="&#xe00c;" horiz-adv-x="4700" 
d="M1923 12700h800v-11000h1850c80 0 102 -41 32 -91l-2163 -1618c-70 -50 -167 -50 -237 0l-2163 1618c-70 50 -48 91 32 91h1850z" />
    <glyph glyph-name="13" unicode="&#xe00d;" horiz-adv-x="3900" 
d="M1541 12700h800v-9400h1450c80 0 109 -61 69 -131l-1838 -3138c-50 -70 -110 -70 -150 0l-1850 3138c-50 70 -11 131 69 131h1450v9400z" />
    <glyph glyph-name="14" unicode="&#xe00e;" horiz-adv-x="3500" 
d="M1323 12700h800v-11400h1250c80 0 102 -41 32 -91l-1563 -1218c-70 -50 -167 -50 -237 0l-1563 1218c-70 50 -48 91 32 91h1250z" />
    <glyph glyph-name="15" unicode="&#xe00f;" horiz-adv-x="2700" 
d="M932 12700h800v-10400h859c80 0 112 -61 72 -131l-1250 -2138c-50 -70 -111 -70 -141 0l-1250 2138c-50 70 -11 131 69 131h841v10400z" />
    <glyph glyph-name="16" unicode="&#xe010;" horiz-adv-x="9300" 
d="M8728 11009l565 -565l-6790 -6788l603 -603c57 -57 40 -127 -38 -162l-2968 -1160c-78 -35 -119 7 -91 78l1166 2975c35 78 105 95 162 38l603 -603z" />
    <glyph glyph-name="17" unicode="&#xe011;" horiz-adv-x="9300" 
d="M8723 11009l566 -565l-6906 -6906l965 -266c85 -28 84 -71 6 -106l-2387 -1044l-22 -22l-9 9l-847 -371c-78 -35 -106 -7 -78 78l372 846l-4 4l10 9l1056 2400c35 78 85 72 106 -6l266 -966z" />
    <glyph glyph-name="18" unicode="&#xe012;" horiz-adv-x="9300" 
d="M8725 11009c189 -189 377 -376 566 -565l-5800 -5800l1025 -1025c56 -57 43 -128 -35 -163l-4384 -1725c-78 -35 -119 7 -84 85l1725 4384c35 78 105 91 162 34l1025 -1025z" />
    <glyph glyph-name="19" unicode="&#xe013;" horiz-adv-x="9300" 
d="M8721 11009l566 -565l-6200 -6200l1665 -413c78 -21 88 -55 10 -90l-4669 -2010c-85 -28 -113 0 -78 78l365 853l-3 4l7 6l1634 3812c28 71 70 69 91 -9l412 -1666z" />
    <glyph glyph-name="20" unicode="&#xe014;" horiz-adv-x="9800" 
d="M9175 11209l565 -565l-7778 -7781l1306 -1307c57 -57 45 -98 -40 -84l-2675 381c-85 14 -155 84 -169 169l-381 2675c-14 85 27 98 84 41l1306 -1307z" />
    <glyph glyph-name="21" unicode="&#xe015;" horiz-adv-x="9300" 
d="M8734 11009l565 -565l-6647 -6647l1025 -1025c56 -57 35 -123 -43 -144l-3522 -919c-85 -14 -128 29 -107 107l913 3528c14 85 87 101 144 44l1025 -1026z" />
    <glyph glyph-name="22" unicode="&#xe016;" horiz-adv-x="9600" 
d="M9034 11109l566 -565l-8063 -8063l885 -884c56 -57 41 -99 -44 -85l-1966 241c-85 14 -155 84 -169 169l-240 1966c-14 85 27 100 84 43l885 -884z" />
    <glyph glyph-name="23" unicode="&#xe017;" horiz-adv-x="9300" 
d="M1371 3653l7357 7357l565 -566l-7356 -7356l610 -607c56 -56 34 -119 -44 -140l-2397 -632c-85 -14 -125 29 -97 100l628 2397c14 85 84 98 141 41z" />
    <glyph glyph-name="24" unicode="&#xe018;" horiz-adv-x="9400" 
d="M8769 11009l565 -565l-7896 -7897l3300 472l-779 -778l-3959 -566l566 3959l778 778l-472 -3300z" />
    <glyph glyph-name="25" unicode="&#xe019;" horiz-adv-x="9400" 
d="M8769 11009l565 -565l-7828 -7828l4291 615l-847 -850l-4950 -706l706 4950l850 847l-615 -4291z" />
    <glyph glyph-name="26" unicode="&#xe01a;" horiz-adv-x="10000" 
d="M9334 11309l566 -565l-8134 -8135l3465 -493l-706 -707l-3959 566l-566 3959l706 707l494 -3466z" />
    <glyph glyph-name="27" unicode="&#xe01b;" horiz-adv-x="9400" 
d="M8769 11009l565 -565l-7990 -7991h3675l-778 -778h-4241v4241l778 778v-3675z" />
    <glyph glyph-name="28" unicode="&#xe01c;" horiz-adv-x="9800" 
d="M9194 11209l565 -565l-8128 -8128l2753 -360l-706 -706l-3253 425l-425 3253l706 706l360 -2753z" />
    <glyph glyph-name="29" unicode="&#xe01d;" horiz-adv-x="9400" 
d="M8769 11009l565 -565l-8062 -8063h2828l-706 -706h-3394v3394l706 706v-2828z" />
    <glyph glyph-name="30" unicode="&#xe01e;" horiz-adv-x="4800" 
d="M2000 12800h800v-11166l2000 2666v-1100l-2400 -3200l-2400 3200v1100l2000 -2666v11166z" />
    <glyph glyph-name="31" unicode="&#xe01f;" horiz-adv-x="6000" 
d="M2600 12800h800v-11066l2600 3466v-1200l-3000 -4000l-3000 4000v1200l2600 -3466v11066z" />
    <glyph glyph-name="32" unicode="&#xe020;" horiz-adv-x="6400" 
d="M2800 12800h800v-11500l2800 2100v-1000l-3200 -2400l-3200 2400v1000l2800 -2100v11500z" />
    <glyph glyph-name="33" unicode="&#xe021;" horiz-adv-x="6000" 
d="M2600 12800h800v-11300l2600 2600v-1100l-3000 -3000l-3000 3000v1100l2600 -2600v11300z" />
    <glyph glyph-name="34" unicode="&#xe022;" horiz-adv-x="5200" 
d="M2200 12800h800v-11494l2200 1694v-1000l-2600 -2000l-2600 2000v1000l2200 -1694v11494z" />
    <glyph glyph-name="35" unicode="&#xe023;" horiz-adv-x="4800" 
d="M2000 12800h800v-11400l2000 2000v-1000l-2400 -2400l-2400 2400v1000l2000 -2000v11400z" />
    <glyph glyph-name="36" unicode="&#xe024;" horiz-adv-x="9300" 
d="M566 11010l6787 -6791l603 603c57 57 128 40 163 -38l1159 -2968c35 -78 -7 -119 -78 -91l-2975 1166c-78 35 -94 105 -37 162l603 603l-6791 6788z" />
    <glyph glyph-name="37" unicode="&#xe025;" horiz-adv-x="9300" 
d="M0 10444l566 565l6906 -6906l265 966c28 85 72 84 107 6l1044 -2388l21 -21l-9 -10l372 -847c35 -78 7 -106 -78 -78l-847 372l-3 -3l-10 9l-2400 1057c-78 35 -71 85 7 106l965 266z" />
    <glyph glyph-name="38" unicode="&#xe026;" horiz-adv-x="9300" 
d="M0 10444l566 566l5800 -5800l1025 1024c57 56 127 44 162 -34l1725 -4384c35 -78 -6 -120 -84 -85l-4385 1725c-78 35 -91 106 -34 163l1025 1025z" />
    <glyph glyph-name="39" unicode="&#xe027;" horiz-adv-x="9300" 
d="M566 11009l6200 -6200l412 1666c21 78 56 87 91 9l2009 -4668c28 -85 0 -113 -78 -78l-853 365l-3 -3l-6 6l-3813 1635c-71 28 -69 69 9 90l1666 413l-6200 6200z" />
    <glyph glyph-name="40" unicode="&#xe028;" horiz-adv-x="9800" 
d="M0 10644l566 565l7781 -7778l1306 1307c57 57 99 44 85 -41l-382 -2675c-14 -85 -84 -155 -169 -169l-2675 -381c-85 -14 -97 27 -40 84l1306 1306z" />
    <glyph glyph-name="41" unicode="&#xe029;" horiz-adv-x="9400" 
d="M566 11010l6646 -6647l1026 1025c57 56 122 34 143 -44l919 -3522c14 -85 -28 -127 -106 -106l-3528 912c-85 14 -101 87 -44 144l1025 1025l-6647 6647z" />
    <glyph glyph-name="42" unicode="&#xe02a;" horiz-adv-x="9600" 
d="M566 11109l8062 -8062l884 884c57 56 99 42 85 -43l-241 -1966c-14 -85 -83 -155 -168 -169l-1966 -241c-85 -14 -101 28 -44 85l884 884l-8062 8063z" />
    <glyph glyph-name="43" unicode="&#xe02b;" horiz-adv-x="9400" 
d="M566 11009l7356 -7356l606 610c56 56 120 34 141 -44l631 -2397c14 -85 -29 -125 -100 -97l-2397 628c-85 14 -98 84 -41 141l594 594l-7356 7356z" />
    <glyph glyph-name="44" unicode="&#xe02c;" horiz-adv-x="9400" 
d="M0 10444l566 566l7897 -7897l-472 3300l778 -779l565 -3959l-3959 566l-778 778l3300 -472z" />
    <glyph glyph-name="45" unicode="&#xe02d;" horiz-adv-x="9400" 
d="M566 11009l7828 -7828l-616 4291l850 -847l706 -4950l-4950 706l-846 850l4290 -615l-7828 7828z" />
    <glyph glyph-name="46" unicode="&#xe02e;" horiz-adv-x="10000" 
d="M566 11309l8134 -8134l494 3466l706 -707l-566 -3959l-3959 -566l-706 707l3465 493l-8134 8135z" />
    <glyph glyph-name="47" unicode="&#xe02f;" horiz-adv-x="9400" 
d="M566 11009l7990 -7990v3675l778 -778v-4241h-4240l-778 778h3675l-7991 7991z" />
    <glyph glyph-name="48" unicode="&#xe030;" horiz-adv-x="9800" 
d="M566 11209l8128 -8128l359 2753l706 -706l-425 -3253l-3253 -425l-706 706l2753 360l-8128 8128z" />
    <glyph glyph-name="49" unicode="&#xe031;" horiz-adv-x="9400" 
d="M0 10444l566 566l8062 -8063v2828l706 -706v-3394h-3393l-707 706h2828z" />
    <glyph glyph-name="50" unicode="&#xe032;" 
d="M3036 7750c51 -2 84 -40 84 -100v-850h9600v-800h-9600v-850c0 -80 -60 -121 -140 -91l-2919 1281c-80 30 -79 89 -9 119l2928 1282c20 8 39 10 56 9z" />
    <glyph glyph-name="51" unicode="&#xe033;" 
d="M3379 7650c65 25 119 1 72 -81l-497 -869h9765v-800h-9765l497 -869c40 -80 8 -111 -72 -81l-2425 950h-35v12l-859 338c-80 30 -80 69 0 109l859 335v6h16z" />
    <glyph glyph-name="52" unicode="&#xe034;" 
d="M4435 8350c51 -2 84 -40 84 -100v-1450h8200v-800h-8200v-1450c0 -80 -60 -121 -140 -91l-4319 1881c-80 30 -80 89 0 119l4319 1882c20 8 39 10 56 9z" />
    <glyph glyph-name="53" unicode="&#xe035;" 
d="M4779 8341c56 24 103 6 59 -72l-887 -1469h8769v-800h-8769l887 -1469c40 -70 21 -102 -59 -72c-1573 627 -3143 1257 -4719 1881c-80 40 -80 80 0 110l859 344v6h16z" />
    <glyph glyph-name="54" unicode="&#xe036;" 
d="M1656 8681c38 53 91 65 91 -31v-1850h11000v-800h-11000v-1850c0 -80 -41 -101 -91 -31l-1618 2162c-50 70 -50 168 0 238z" />
    <glyph glyph-name="55" unicode="&#xe037;" 
d="M3190 8219c59 42 131 22 131 -69v-1450h9400v-800h-9400v-1450c0 -80 -61 -109 -131 -69l-3138 1838c-70 50 -70 110 0 150z" />
    <glyph glyph-name="56" unicode="&#xe038;" 
d="M1256 8081c38 53 91 65 91 -31v-1250h11400v-800h-11400v-1250c0 -80 -41 -101 -91 -31l-1218 1562c-50 70 -50 168 0 238z" />
    <glyph glyph-name="57" unicode="&#xe039;" 
d="M2190 7709c59 42 131 23 131 -68v-841h10400v-800h-10400v-859c0 -80 -61 -112 -131 -72l-2138 1250c-70 50 -70 110 0 140z" />
    <glyph glyph-name="58" unicode="&#xe03a;" 
d="M3200 8800h1100l-2666 -2000h11166v-800h-11166l2666 -2000h-1100l-3200 2400z" />
    <glyph glyph-name="59" unicode="&#xe03b;" 
d="M4000 9400h1200l-3466 -2600h11066v-800h-11066l3466 -2600h-1200l-4000 3000z" />
    <glyph glyph-name="60" unicode="&#xe03c;" 
d="M2400 9600h1000l-2100 -2800h11500v-800h-11500l2100 -2800h-1000l-2400 3200z" />
    <glyph glyph-name="61" unicode="&#xe03d;" 
d="M3000 9400h1100l-2600 -2600h11300v-800h-11300l2600 -2600h-1100l-3000 3000z" />
    <glyph glyph-name="62" unicode="&#xe03e;" 
d="M2000 9000h1000l-1694 -2200h11494v-800h-11494l1694 -2200h-1000l-2000 2600z" />
    <glyph glyph-name="63" unicode="&#xe03f;" 
d="M2400 8800h1000l-2000 -2000h11400v-800h-11400l2000 -2000h-1000l-2400 2400z" />
    <glyph glyph-name="64" unicode="&#xe040;" 
d="M3036 10650c51 -2 84 -40 84 -100v-850h9600v-7600h-800v6800h-8800v-850c0 -80 -60 -121 -140 -91l-2928 1281c-70 30 -71 89 9 119l2919 1282c20 8 39 10 56 9z" />
    <glyph glyph-name="65" unicode="&#xe041;" 
d="M3379 10650c63 24 119 12 72 -81l-497 -869h9765v-7600h-800v6800h-8965l497 -869c40 -70 8 -111 -72 -81l-2444 950h-16v6l-859 335c-80 40 -80 79 0 109l859 338v12h35z" />
    <glyph glyph-name="66" unicode="&#xe042;" 
d="M2190 10631c62 35 131 14 131 -71v-860h10400v-7600h-800v6800h-9600v-840c0 -80 -61 -119 -131 -69l-2138 1250c-70 30 -70 90 0 140z" />
    <glyph glyph-name="67" unicode="&#xe043;" 
d="M2400 11200h1000l-2000 -2000h11400v-7600h-800v6800h-10600l2000 -2000h-1000l-2400 2400z" />
    <glyph glyph-name="68" unicode="&#xe044;" 
d="M9684 10650c17 1 36 -1 56 -9l2919 -1281c80 -30 80 -89 10 -119l-2928 -1282c-80 -30 -141 11 -141 91v850h-8800v-6800h-800v7600h9600v850c0 60 33 98 84 100z" />
    <glyph glyph-name="69" unicode="&#xe045;" 
d="M9269 10569c-47 93 9 105 72 81l2425 -950h34v-13l859 -337c80 -30 80 -70 0 -110l-859 -334v-6h-16l-2443 -950c-80 -30 -112 11 -72 81l497 869h-8966v-6800h-800v7600h9766z" />
    <glyph glyph-name="70" unicode="&#xe046;" 
d="M10459 10647c21 4 46 -1 72 -16l2138 -1250c70 -50 70 -110 0 -140l-2138 -1250c-70 -50 -131 -12 -131 68v841h-9600v-6800h-800v7600h10400v859c0 50 24 82 59 88z" />
    <glyph glyph-name="71" unicode="&#xe047;" 
d="M9400 11200h1000l2400 -2400l-2400 -2400h-1000l2000 2000h-10600v-6800h-800v7600h11400z" />
    <glyph glyph-name="72" unicode="&#xe048;" horiz-adv-x="8600" 
d="M0 12700h7600v-9600h850c80 0 121 -60 91 -140l-1281 -2919c-30 -80 -89 -80 -119 -10l-1282 2928c-30 80 11 141 91 141h850v8800h-6800v800z" />
    <glyph glyph-name="73" unicode="&#xe049;" horiz-adv-x="8600" 
d="M0 12700h7600v-9766l869 497c80 40 111 8 81 -72l-950 -2425v-34h-12l-338 -859c-30 -80 -69 -80 -109 0l-335 859h-6v16l-950 2443c-30 80 11 112 81 72l869 -497v8966h-6800v800z" />
    <glyph glyph-name="74" unicode="&#xe04a;" horiz-adv-x="8600" 
d="M0 12700h7600v-10400h859c80 0 112 -61 72 -131l-1250 -2138c-50 -70 -110 -70 -140 0l-1250 2138c-50 70 -11 131 69 131h840v9600h-6800v800z" />
    <glyph glyph-name="75" unicode="&#xe04b;" horiz-adv-x="9600" 
d="M0 12800h7600v-11400l2000 2000v-1000l-2400 -2400l-2400 2400v1000l2000 -2000v10600h-6800v800z" />
    <glyph glyph-name="76" unicode="&#xe04c;" horiz-adv-x="8600" 
d="M7141 12669c33 76 89 68 118 -9l1282 -2919c30 -80 -11 -141 -91 -141h-850v-9600h-7600v800h6800v8800h-850c-80 0 -121 61 -91 141z" />
    <glyph glyph-name="77" unicode="&#xe04d;" horiz-adv-x="8600" 
d="M7200 12719c19 0 35 -20 50 -60l338 -859h12v-34l950 -2426c30 -80 -1 -111 -81 -71l-869 497v-9766h-7600v800h6800v8966l-869 -497c-70 -40 -111 -9 -81 71l950 2444v16h6l335 859c20 40 40 60 59 60z" />
    <glyph glyph-name="78" unicode="&#xe04e;" horiz-adv-x="8600" 
d="M7203 12722c25 0 53 -18 78 -53l1250 -2138c40 -70 8 -131 -72 -131h-859v-10400h-7600v800h6800v9600h-841c-80 0 -118 61 -68 131l1250 2138c15 35 37 53 62 53z" />
    <glyph glyph-name="79" unicode="&#xe04f;" horiz-adv-x="9600" 
d="M7200 12800l2400 -2400v-1000l-2000 2000v-11400h-7600v800h6800v10600l-2000 -2000v1000z" />
    <glyph glyph-name="80" unicode="&#xe050;" horiz-adv-x="8600" 
d="M950 12700h1h7600v-800h-6800v-8800h850c80 0 120 -61 90 -141l-1281 -2928c-30 -70 -89 -70 -119 10l-1281 2918c-30 80 10 141 90 141h850v9600z" />
    <glyph glyph-name="81" unicode="&#xe051;" horiz-adv-x="8600" 
d="M961 12700h7600v-800h-6800v-8966l869 497c70 40 111 8 81 -72l-950 -2443v-16h-6l-334 -859c-40 -80 -80 -80 -110 0l-337 859h-13v34l-950 2425c-30 80 2 112 82 72l868 -497v9766z" />
    <glyph glyph-name="82" unicode="&#xe052;" horiz-adv-x="8600" 
d="M948 12700h7600v-800h-6800v-9600h841c80 0 119 -61 69 -131l-1250 -2138c-30 -70 -91 -70 -141 0l-1250 2138c-40 70 -8 131 72 131h860z" />
    <glyph glyph-name="83" unicode="&#xe053;" horiz-adv-x="9600" 
d="M2000 12800h7600v-800h-6800v-10600l2000 2000v-1000l-2400 -2400l-2400 2400v1000l2000 -2000v11400z" />
    <glyph glyph-name="84" unicode="&#xe054;" horiz-adv-x="8600" 
d="M1291 12659c29 77 86 86 119 10l1281 -2928c30 -80 -11 -141 -91 -141h-850v-8800h6800v-800h-7600v9600h-850c-80 0 -120 61 -90 141z" />
    <glyph glyph-name="85" unicode="&#xe055;" horiz-adv-x="8600" 
d="M1361 12719c19 0 40 -20 60 -60l334 -859h6v-16l950 -2444c30 -80 -11 -111 -81 -71l-869 497v-8966h6800v-800h-7600v9766l-868 -497c-80 -40 -112 -9 -82 71l950 2426v34h13l337 859c15 40 31 60 50 60z" />
    <glyph glyph-name="86" unicode="&#xe056;" horiz-adv-x="8600" 
d="M1345 12722c25 0 48 -18 63 -53l1250 -2138c50 -70 11 -131 -69 -131h-840v-9600h6800v-800h-7600v10400h-860c-80 0 -112 61 -72 131l1250 2138c25 35 53 53 78 53z" />
    <glyph glyph-name="87" unicode="&#xe057;" horiz-adv-x="9600" 
d="M2400 12800l2400 -2400v-1000l-2000 2000v-10600h6800v-800h-7600v11400l-2000 -2000v1000z" />
    <glyph glyph-name="88" unicode="&#xe058;" 
d="M4608 10750c65 13 112 -21 112 -100v-1250h8000v-7400h-1600v5800h-6400v-1250c0 -80 -60 -121 -140 -91l-4528 2081c-70 30 -71 89 9 119l4519 2082c10 4 19 7 28 9z" />
    <glyph glyph-name="89" unicode="&#xe059;" 
d="M4780 10741c67 25 112 4 90 -82l-459 -1259h8309v-7400h-1600v5800h-6709l459 -1260c30 -80 -10 -111 -90 -81l-3047 1341h-13v6l-1668 734c-70 30 -71 89 9 119l1659 732v9h19z" />
    <glyph glyph-name="90" unicode="&#xe05a;" 
d="M3390 10719c60 35 131 21 131 -69v-1250h9200v-7400h-1600v5800h-7600v-1250c0 -80 -61 -109 -131 -69l-3338 2038c-70 40 -70 122 0 162z" />
    <glyph glyph-name="91" unicode="&#xe05b;" 
d="M2624 11000h1700c30 0 30 -21 10 -41l-1760 -1759h10200v-7400h-1600v5800h-8606l1766 -1759c20 -20 10 -41 -10 -41h-1700c-30 0 -70 21 -90 41l-2519 2518c-20 20 -20 52 0 72l2519 2528c20 20 60 41 90 41z" />
    <glyph glyph-name="92" unicode="&#xe05c;" 
d="M8059 10750c22 6 51 2 81 -9l4519 -2081c80 -30 80 -89 10 -119l-4528 -2082c-80 -30 -141 11 -141 91v1250h-6400v-5800h-1600v7400h8000v1250c0 56 22 91 59 100z" />
    <glyph glyph-name="93" unicode="&#xe05d;" 
d="M7850 10659c-22 87 18 109 91 82l3040 -1341h19v-9l1659 -732c80 -30 80 -88 10 -118l-1669 -735v-6h-12l-3047 -1341c-80 -30 -121 2 -91 82l459 1259h-6709v-5800h-1600v7400h8309z" />
    <glyph glyph-name="94" unicode="&#xe05e;" 
d="M9200 10650c0 87 66 106 131 69l3338 -2038c70 -40 70 -122 0 -162l-3338 -2038c-70 -40 -131 -11 -131 69v1250h-7600v-5800h-1600v7400h9200v1250z" />
    <glyph glyph-name="95" unicode="&#xe05f;" 
d="M8450 11000h1700c30 0 71 -21 91 -41l2519 -2528c20 -20 20 -52 0 -72l-2519 -2518c-20 -20 -61 -41 -91 -41h-1700c-20 0 -29 21 -9 41l1765 1759h-8606v-5800h-1600v7400h10200l-1759 1759c-20 20 -21 41 9 41z" />
    <glyph glyph-name="96" unicode="&#xe060;" horiz-adv-x="8800" 
d="M0 12700h7400v-8000h1250c90 0 121 -60 91 -140l-2081 -4519c-30 -80 -89 -80 -119 -10l-2082 4528c-30 80 11 141 91 141h1250v6400h-5800v1600z" />
    <glyph glyph-name="97" unicode="&#xe061;" horiz-adv-x="8800" 
d="M0 12700h7400v-8309l1259 459c80 20 112 -11 82 -91l-1341 -3040v-19h-9l-732 -1659c-30 -80 -88 -80 -118 -10l-735 1669h-6v12l-1341 3047c-30 80 2 121 82 91l1259 -459v6709h-5800v1600z" />
    <glyph glyph-name="98" unicode="&#xe062;" horiz-adv-x="8800" 
d="M0 12700h7400v-9200h1250c80 0 109 -61 69 -131l-2038 -3338c-40 -70 -122 -70 -162 0l-2038 3338c-40 70 -11 131 69 131h1250v7600h-5800v1600z" />
    <glyph glyph-name="99" unicode="&#xe063;" horiz-adv-x="9200" 
d="M0 12700h7400v-10200l1759 1759c20 20 41 21 41 -9v-1700c0 -30 -21 -71 -41 -91l-2528 -2519c-20 -20 -52 -20 -72 0l-2518 2519c-20 20 -41 61 -41 91v1700c0 20 21 29 41 9l1759 -1765v8606h-5800v1600z" />
    <glyph glyph-name="100" unicode="&#xe064;" horiz-adv-x="8800" 
d="M6541 12669c33 76 89 68 118 -9l2082 -4519c30 -80 -1 -141 -91 -141h-1250v-8000h-7400v1600h5800v6400h-1250c-80 0 -121 61 -91 141z" />
    <glyph glyph-name="101" unicode="&#xe065;" horiz-adv-x="8800" 
d="M6541 12669c33 76 89 67 118 -10l732 -1659h9v-19l1341 -3040c30 -80 -2 -111 -82 -91l-1259 459v-8309h-7400v1600h5800v6709l-1259 -459c-80 -30 -112 11 -82 91l1341 3047v12h6z" />
    <glyph glyph-name="102" unicode="&#xe066;" horiz-adv-x="8800" 
d="M6600 12722c30 0 61 -18 81 -53l2038 -3338c40 -70 11 -131 -69 -131h-1250v-9200h-7400v1600h5800v7600h-1250c-80 0 -109 61 -69 131l2038 3338c20 35 51 53 81 53z" />
    <glyph glyph-name="103" unicode="&#xe067;" horiz-adv-x="9200" 
d="M6594 12775c12 0 27 -6 37 -16l2528 -2519c20 -20 41 -60 41 -90v-1700c0 -30 -21 -30 -41 -10l-1759 1760v-10200h-7400v1600h5800v8606l-1759 -1765c-20 -20 -41 -11 -41 9v1700c0 30 21 71 41 91l2518 2518c10 10 23 16 35 16z" />
    <glyph glyph-name="104" unicode="&#xe068;" horiz-adv-x="8800" 
d="M1352 12700h7400v-1600h-5800v-6400h1250c80 0 121 -61 91 -141l-2082 -4528c-30 -70 -89 -70 -119 10l-2081 4518c-30 80 1 141 91 141h1250v8000z" />
    <glyph glyph-name="105" unicode="&#xe069;" horiz-adv-x="8800" 
d="M1352 12700h7400v-1600h-5800v-6709l1259 459c80 30 112 -11 82 -91l-1341 -3047v-12h-6l-735 -1669c-30 -70 -89 -70 -119 10l-731 1659h-9v19l-1341 3040c-30 80 1 111 81 91l1260 -459v8309z" />
    <glyph glyph-name="106" unicode="&#xe06a;" horiz-adv-x="8800" 
d="M1337 12700h7400v-1600h-5800v-7600h1250c80 0 108 -61 68 -131l-2037 -3338c-40 -70 -123 -70 -163 0l-2037 3338c-40 70 -11 131 69 131h1250v9200z" />
    <glyph glyph-name="107" unicode="&#xe06b;" horiz-adv-x="9200" 
d="M1800 12700h7400v-1600h-5800v-8606l1759 1765c20 20 41 11 41 -9v-1700c0 -30 -21 -71 -41 -91l-2518 -2518c-20 -20 -52 -20 -72 0l-2528 2518c-20 20 -41 61 -41 91v1700c0 30 21 29 41 9l1759 -1759v10200z" />
    <glyph glyph-name="108" unicode="&#xe06c;" horiz-adv-x="8800" 
d="M2092 12659c29 77 86 86 119 10l2081 -4528c30 -80 -10 -141 -90 -141h-1250v-6400h5800v-1600h-7400v8000h-1250c-90 0 -121 61 -91 141z" />
    <glyph glyph-name="109" unicode="&#xe06d;" horiz-adv-x="8800" 
d="M2093 12659c29 77 85 86 118 10l735 -1669h6v-12l1341 -3047c30 -80 -2 -121 -82 -91l-1259 459v-6709h5800v-1600h-7400v8309l-1259 -459c-80 -20 -112 11 -82 91l1341 3040v19h9z" />
    <glyph glyph-name="110" unicode="&#xe06e;" horiz-adv-x="8800" 
d="M2137 12722c30 0 61 -18 81 -53l2038 -3338c40 -70 11 -131 -69 -131h-1250v-7600h5800v-1600h-7400v9200h-1250c-80 0 -109 61 -69 131l2037 3338c20 35 52 53 82 53z" />
    <glyph glyph-name="111" unicode="&#xe06f;" horiz-adv-x="9200" 
d="M2606 12775c12 0 25 -5 35 -15l2518 -2519c20 -20 41 -61 41 -91v-1700c0 -20 -21 -29 -41 -9l-1759 1765v-8606h5800v-1600h-7400v10200l-1759 -1759c-20 -20 -41 -21 -41 9v1700c0 30 21 71 41 91l2528 2518c10 10 25 16 37 16z" />
    <glyph glyph-name="112" unicode="&#xe070;" 
d="M11120 4900v5800h1600v-7400h-8000v-1250c0 -90 -60 -121 -140 -91l-4519 2081c-80 30 -79 89 -9 119l4528 2082c80 30 140 -11 140 -91v-1250h6400z" />
    <glyph glyph-name="113" unicode="&#xe071;" 
d="M11120 10700h1600v-7400h-8309l459 -1259c20 -80 -10 -112 -90 -82l-3041 1341h-19v9l-1659 732c-80 30 -79 88 -9 118l1668 735v6h13l3047 1341c80 30 120 -2 90 -82l-459 -1259h6709v5800z" />
    <glyph glyph-name="114" unicode="&#xe072;" 
d="M11121 10700h1600v-7400h-9200v-1250c0 -80 -61 -109 -131 -69l-3338 2038c-70 40 -70 122 0 162l3338 2038c70 40 131 11 131 -69v-1250h7600v5800z" />
    <glyph glyph-name="115" unicode="&#xe073;" 
d="M11174 11000h1600v-7400h-10200l1760 -1759c20 -20 20 -41 -10 -41h-1700c-30 0 -70 21 -90 41l-2519 2528c-20 20 -20 52 0 72l2519 2518c20 20 60 41 90 41h1700c20 0 30 -21 10 -41l-1766 -1759h8606v5800z" />
    <glyph glyph-name="116" unicode="&#xe074;" 
d="M0 10700h1600v-5800h6400v1250c0 80 61 121 141 91l4528 -2081c70 -30 70 -89 -10 -119l-4518 -2082c-80 -30 -141 1 -141 91v1250h-8000v7400z" />
    <glyph glyph-name="117" unicode="&#xe075;" 
d="M0 10700h1600v-5800h6709l-459 1259c-30 80 11 112 91 82l3047 -1341h12v-6l1669 -735c70 -30 70 -88 -10 -118l-1659 -732v-9h-19l-3040 -1341c-80 -30 -111 2 -91 82l459 1259h-8309v7400z" />
    <glyph glyph-name="118" unicode="&#xe076;" 
d="M0 10700h1600v-5800h7600v1250c0 80 61 109 131 69l3338 -2038c70 -40 70 -122 0 -162l-3338 -2038c-70 -40 -131 -11 -131 69v1250h-9200v7400z" />
    <glyph glyph-name="119" unicode="&#xe077;" 
d="M0 11000h1600v-5800h8606l-1765 1759c-20 20 -11 41 9 41h1700c30 0 71 -21 91 -41l2519 -2518c20 -20 20 -52 0 -72l-2519 -2528c-20 -20 -61 -41 -91 -41h-1700c-30 0 -29 21 -9 41l1759 1759h-10200v7400z" />
    <glyph glyph-name="120" unicode="&#xe078;" 
d="M11920 3800v6800h800v-7600h-9600v-850c0 -80 -60 -121 -140 -91l-2919 1281c-80 30 -79 89 -9 119l2928 1282c80 30 140 -11 140 -91v-850h8800z" />
    <glyph glyph-name="121" unicode="&#xe079;" 
d="M11919 10600h800v-7600h-9765l497 -869c40 -80 8 -111 -72 -81l-2425 950h-35v12l-859 338c-80 30 -80 69 0 109l859 335v6h16l2444 950c80 30 112 -11 72 -81l-497 -869h8965v6800z" />
    <glyph glyph-name="122" unicode="&#xe07a;" 
d="M11921 10600h800v-7600h-10400v-859c0 -80 -61 -112 -131 -72l-2138 1250c-70 50 -70 110 0 140l2138 1250c70 50 131 12 131 -68v-841h9600v6800z" />
    <glyph glyph-name="123" unicode="&#xe07b;" 
d="M12000 11200h800v-7600h-11400l2000 -2000h-1000l-2400 2400l2400 2400h1000l-2000 -2000h10600v6800z" />
    <glyph glyph-name="124" unicode="&#xe07c;" 
d="M0 10600h800v-6800h8800v850c0 80 61 121 141 91l2928 -1281c70 -30 70 -89 -10 -119l-2918 -1282c-80 -30 -141 11 -141 91v850h-9600v7600z" />
    <glyph glyph-name="125" unicode="&#xe07d;" 
d="M0 10600h800v-6800h8966l-497 869c-40 70 -8 111 72 81l2443 -950h16v-6l859 -335c80 -40 80 -79 0 -109l-859 -338v-12h-34l-2425 -950c-80 -30 -112 1 -72 81l497 869h-9766v7600z" />
    <glyph glyph-name="126" unicode="&#xe07e;" 
d="M0 10600h800v-6800h9600v840c0 80 61 119 131 69l2138 -1250c70 -30 70 -90 0 -140l-2138 -1250c-70 -40 -131 -8 -131 72v859h-10400v7600z" />
    <glyph glyph-name="127" unicode="&#xe07f;" 
d="M0 11200h800v-6800h10600l-2000 2000h1000l2400 -2400l-2400 -2400h-1000l2000 2000h-11400v7600z" />
    <glyph glyph-name="128" unicode="&#xe080;" 
d="M9684 7750c17 1 36 -1 56 -9l2919 -1281c80 -30 80 -89 10 -119l-2928 -1282c-80 -30 -141 11 -141 91v850h-9600v800h9600v850c0 60 33 98 84 100z" />
    <glyph glyph-name="129" unicode="&#xe081;" 
d="M9269 7569c-47 93 9 105 72 81l2425 -950h34v-13l859 -337c80 -30 80 -70 0 -110l-859 -334v-6h-16l-2443 -950c-80 -30 -112 11 -72 81l497 869h-9766v800h9766z" />
    <glyph glyph-name="130" unicode="&#xe082;" 
d="M8284 8350c17 1 37 -1 57 -9l4318 -1881c80 -30 80 -89 0 -119l-4318 -1882c-80 -30 -141 11 -141 91v1450h-8200v800h8200v1450c0 60 33 98 84 100z" />
    <glyph glyph-name="131" unicode="&#xe083;" 
d="M7881 8169c-51 89 2 93 60 71c1573 -627 3143 -1257 4719 -1881c80 -40 80 -79 0 -109l-860 -344v-6h-16l-3843 -1541c-70 -30 -100 2 -60 72l888 1469h-8769v800h8769z" />
    <glyph glyph-name="132" unicode="&#xe084;" 
d="M11000 8650c0 89 45 95 91 31l1618 -2162c50 -70 50 -168 0 -238l-1618 -2162c-50 -70 -91 -49 -91 31v1850h-11000v800h11000v1850z" />
    <glyph glyph-name="133" unicode="&#xe085;" 
d="M9400 8250c0 87 66 106 131 69l3138 -1838c70 -50 70 -110 0 -150l-3138 -1850c-70 -50 -131 -11 -131 69v1450h-9400v800h9400v1450z" />
    <glyph glyph-name="134" unicode="&#xe086;" 
d="M11400 8050c0 89 45 95 91 31l1218 -1562c50 -70 50 -168 0 -238l-1218 -1562c-50 -70 -91 -49 -91 31v1250h-11400v800h11400v1250z" />
    <glyph glyph-name="135" unicode="&#xe087;" 
d="M10459 7647c21 4 46 -1 72 -16l2138 -1250c70 -50 70 -110 0 -140l-2138 -1250c-70 -50 -131 -12 -131 68v841h-10400v800h10400v859c0 50 24 82 59 88z" />
    <glyph glyph-name="136" unicode="&#xe088;" 
d="M8500 8800h1100l3200 -2400l-3200 -2400h-1100l2666 2000h-11166v800h11166z" />
    <glyph glyph-name="137" unicode="&#xe089;" 
d="M7600 9400h1200l4000 -3000l-4000 -3000h-1200l3466 2600h-11066v800h11066z" />
    <glyph glyph-name="138" unicode="&#xe08a;" 
d="M9400 9600h1000l2400 -3200l-2400 -3200h-1000l2100 2800h-11500v800h11500z" />
    <glyph glyph-name="139" unicode="&#xe08b;" 
d="M8700 9400h1100l3000 -3000l-3000 -3000h-1100l2600 2600h-11300v800h11300z" />
    <glyph glyph-name="140" unicode="&#xe08c;" 
d="M9800 9000h1000l2000 -2600l-2000 -2600h-1000l1694 2200h-11494v800h11494z" />
    <glyph glyph-name="141" unicode="&#xe08d;" 
d="M9400 8800h1000l2400 -2400l-2400 -2400h-1000l2000 2000h-11400v800h11400z" />
    <glyph glyph-name="142" unicode="&#xe08e;" horiz-adv-x="4400" 
d="M1350 12700h1h1600v-8000h1250c90 0 120 -60 90 -140l-2081 -4519c-30 -80 -89 -80 -119 -10l-2081 4528c-30 80 10 141 90 141h1250v8000z" />
    <glyph glyph-name="143" unicode="&#xe08f;" horiz-adv-x="4400" 
d="M1352 12700h1600v-8309l1259 459c80 20 112 -11 82 -91l-1341 -3040v-19h-9l-732 -1659c-30 -80 -88 -80 -118 -10l-735 1669h-6v12l-1341 3047c-30 80 2 121 82 91l1259 -459v8309z" />
    <glyph glyph-name="144" unicode="&#xe090;" horiz-adv-x="5600" 
d="M1950 12700h1h1600v-6800h1850c90 0 130 -60 90 -140l-2681 -5719c-30 -80 -88 -80 -128 -10l-2672 5728c-30 80 10 141 90 141h1850v6800z" />
    <glyph glyph-name="145" unicode="&#xe091;" horiz-adv-x="5500" 
d="M1947 12700h1600v-6972l1859 531c80 20 111 -20 81 -100l-1940 -4428v-31h-13l-728 -1659c-30 -80 -89 -80 -109 -10l-731 1669h-19v47l-1932 4412c-40 80 2 120 82 100l1850 -531v6972z" />
    <glyph glyph-name="146" unicode="&#xe092;" horiz-adv-x="6800" 
d="M2600 12800h1600v-10000h2600l-3400 -2800l-3400 2800h2600v10000z" />
    <glyph glyph-name="147" unicode="&#xe093;" horiz-adv-x="5500" 
d="M1941 12700h1600v-8200h1850c80 0 109 -61 69 -131l-2638 -4338c-50 -70 -112 -70 -162 0l-2638 4338c-50 70 -11 131 69 131h1850v8200z" />
    <glyph glyph-name="148" unicode="&#xe094;" horiz-adv-x="4700" 
d="M1523 12700h1600v-10800h1450c80 0 92 -50 32 -100l-2163 -1800c-70 -60 -167 -60 -237 0l-2163 1800c-70 60 -48 100 32 100h1450z" />
    <glyph glyph-name="149" unicode="&#xe095;" horiz-adv-x="4300" 
d="M1337 12700h1600v-9200h1250c80 0 108 -61 68 -131l-2037 -3338c-40 -70 -123 -70 -163 0l-2037 3338c-40 70 -11 131 69 131h1250v9200z" />
    <glyph glyph-name="150" unicode="&#xe096;" horiz-adv-x="9600" 
d="M8443 11091l1132 -1132l-5657 -5656l885 -884c64 -64 43 -128 -35 -163l-4668 -1725c-78 -35 -119 7 -91 78l1731 4675c35 78 106 92 163 35l884 -885z" />
    <glyph glyph-name="151" unicode="&#xe097;" horiz-adv-x="9600" 
d="M8443 11091l1132 -1132l-5875 -5875l1215 -565c71 -42 72 -87 -6 -122l-3100 -1203l-13 -13l-6 7l-1690 -657c-78 -35 -119 7 -91 78l659 1700l-3 3l10 10l1206 3103c35 78 87 84 122 6l565 -1215z" />
    <glyph glyph-name="152" unicode="&#xe098;" horiz-adv-x="9600" 
d="M8449 11091l1131 -1132l-4809 -4809l1309 -1306c64 -64 51 -135 -34 -163l-5941 -2150c-78 -35 -121 7 -100 85l2166 5940c35 78 105 92 162 35l1307 -1310z" />
    <glyph glyph-name="153" unicode="&#xe099;" horiz-adv-x="9600" 
d="M8441 11091l1131 -1132l-4931 -4931l1694 -937c71 -42 62 -94 -16 -129l-4503 -1759l-22 -22l-9 10l-1688 -660c-78 -35 -119 8 -84 72l665 1694l-15 15l31 32l1759 4487c28 85 83 87 125 16l935 -1685z" />
    <glyph glyph-name="154" unicode="&#xe09a;" horiz-adv-x="10100" 
d="M8909 11391l1132 -1132l-7072 -7072l1840 -1837l-4384 425l-425 4384l1838 -1840z" />
    <glyph glyph-name="155" unicode="&#xe09b;" horiz-adv-x="9600" 
d="M8453 11191l1131 -1132l-5797 -5797l1306 -1309c57 -56 38 -120 -40 -141l-4938 -1203c-85 -14 -126 28 -112 113l1203 4937c14 85 83 98 140 41l1310 -1306z" />
    <glyph glyph-name="156" unicode="&#xe09c;" horiz-adv-x="9900" 
d="M8754 11291l1131 -1132l-7634 -7634l1025 -1028c57 -56 28 -98 -50 -91l-2800 253c-92 7 -165 80 -172 172l-253 2800c-7 92 33 107 90 50l1028 -1025z" />
    <glyph glyph-name="157" unicode="&#xe09d;" horiz-adv-x="9600" 
d="M8455 11191l1131 -1131l-6503 -6504l881 -884c57 -57 37 -123 -41 -144l-3806 -919c-78 -21 -133 35 -112 113l918 3806c21 78 87 98 144 41l885 -881z" />
    <glyph glyph-name="158" unicode="&#xe09e;" horiz-adv-x="9700" 
d="M8484 11191l1132 -1132l-6897 -6897l2937 391l-1415 -1412l-4241 -566l566 4241l1412 1415l-390 -2937z" />
    <glyph glyph-name="159" unicode="&#xe09f;" horiz-adv-x="9700" 
d="M8484 11191l1132 -1132l-6872 -6872l4328 650l-1416 -1415l-5656 -847l847 5656l1415 1416l-650 -4328z" />
    <glyph glyph-name="160" unicode="&#xe0a0;" horiz-adv-x="10500" 
d="M9334 11591l1132 -1132l-7422 -7421l3462 -782l-1131 -1131l-4384 991l-991 4384l1131 1131l782 -3462z" />
    <glyph glyph-name="161" unicode="&#xe0a1;" horiz-adv-x="9700" 
d="M8484 11191l1132 -1132l-7213 -7212h3678l-1272 -1272h-4809v4809l1272 1272v-3678z" />
    <glyph glyph-name="162" unicode="&#xe0a2;" horiz-adv-x="10200" 
d="M9050 11491l1131 -1132l-7415 -7415l2325 -503l-1132 -1132l-3253 707l-706 3253l1131 1131l503 -2325z" />
    <glyph glyph-name="163" unicode="&#xe0a3;" horiz-adv-x="9700" 
d="M8484 11191l1132 -1132l-7207 -7206h2491c28 0 43 -13 22 -34l-1203 -1203c-21 -21 -63 -35 -91 -35h-3578c-28 0 -50 22 -50 50v3563c0 28 13 73 34 94l1204 1200c14 14 34 9 34 -19v-2491z" />
    <glyph glyph-name="164" unicode="&#xe0a4;" horiz-adv-x="5200" 
d="M1800 12800h1600v-9753l1800 2353v-2000l-2600 -3400l-2600 3400v2000l1800 -2353v9753z" />
    <glyph glyph-name="165" unicode="&#xe0a5;" horiz-adv-x="6800" 
d="M2600 12800h1600v-9719l2600 3519v-2000l-3400 -4600l-3400 4600v2000l2600 -3519v9719z" />
    <glyph glyph-name="166" unicode="&#xe0a6;" horiz-adv-x="7600" 
d="M3000 12700h1600v-10494l3000 1894v-1600l-3800 -2400l-3800 2400v1600l3000 -1894v10494z" />
    <glyph glyph-name="167" unicode="&#xe0a7;" horiz-adv-x="6800" 
d="M2600 12800h1600v-10200l2600 2600v-1800l-3400 -3400l-3400 3400v1800l2600 -2600v10200z" />
    <glyph glyph-name="168" unicode="&#xe0a8;" horiz-adv-x="5600" 
d="M2000 12700h1600v-10484l2000 1284v-1600l-2800 -1800l-2800 1800v1600l2000 -1284v10484z" />
    <glyph glyph-name="169" unicode="&#xe0a9;" horiz-adv-x="5200" 
d="M1800 12700h1600v-10191l1759 1760c20 20 41 20 41 -10v-1700c0 -30 -21 -70 -41 -90l-2528 -2528c-20 -20 -52 -20 -72 0l-2518 2518c-20 20 -41 61 -41 91v1700c0 20 21 29 41 9l1759 -1759v10200z" />
    <glyph glyph-name="170" unicode="&#xe0aa;" horiz-adv-x="9600" 
d="M0 9959l1131 1131l5657 -5656l884 885c64 64 127 43 162 -35l1725 -4669c35 -78 -7 -118 -78 -90l-4675 1731c-78 35 -91 106 -34 163l884 884z" />
    <glyph glyph-name="171" unicode="&#xe0ab;" horiz-adv-x="9600" 
d="M1131 11090l5875 -5874l566 1215c42 71 87 72 122 -6l1203 -3100l12 -13l-6 -6l656 -1691c35 -78 -7 -118 -78 -90l-1700 659l-3 -3l-9 9l-3103 1207c-78 35 -85 87 -7 122l1216 565l-5875 5875z" />
    <glyph glyph-name="172" unicode="&#xe0ac;" horiz-adv-x="9600" 
d="M0 9959l1131 1131l4810 -4809l1306 1309c64 64 134 51 162 -34l2150 -5940c35 -78 -6 -121 -84 -100l-5941 2165c-78 35 -91 106 -34 163l1309 1306z" />
    <glyph glyph-name="173" unicode="&#xe0ad;" horiz-adv-x="9600" 
d="M0 9959l1131 1131l4931 -4931l938 1694c42 71 93 62 128 -16l1760 -4503l21 -22l-9 -9l659 -1687c35 -78 -7 -120 -71 -85l-1694 666l-16 -16l-31 31l-4488 1760c-85 28 -86 83 -15 125l1684 934z" />
    <glyph glyph-name="174" unicode="&#xe0ae;" horiz-adv-x="10100" 
d="M1131 11391l7072 -7072l1838 1840l-425 -4384l-4385 -425l1841 1837l-7072 7072z" />
    <glyph glyph-name="175" unicode="&#xe0af;" horiz-adv-x="9600" 
d="M0 10059l1131 1131l5797 -5796l1310 1306c56 57 119 37 140 -41l1203 -4937c14 -85 -27 -127 -112 -113l-4938 1203c-85 14 -97 84 -40 141l1306 1309z" />
    <glyph glyph-name="176" unicode="&#xe0b0;" horiz-adv-x="9900" 
d="M1131 11291l7635 -7635l1028 1025c56 57 97 28 90 -50l-253 -2800c-7 -92 -80 -165 -172 -172l-2800 -253c-92 -7 -107 34 -50 91l1025 1028l-7634 7634z" />
    <glyph glyph-name="177" unicode="&#xe0b1;" horiz-adv-x="9600" 
d="M0 10059l1131 1131l6503 -6503l885 882c57 57 122 37 143 -41l919 -3806c21 -78 -34 -134 -112 -113l-3807 919c-78 21 -97 87 -40 144l881 884z" />
    <glyph glyph-name="178" unicode="&#xe0b2;" horiz-adv-x="9700" 
d="M0 10059l1131 1131l6897 -6896l-390 2937l1412 -1415l566 -4241l-4241 565l-1416 1413l2938 -391z" />
    <glyph glyph-name="179" unicode="&#xe0b3;" horiz-adv-x="9700" 
d="M1131 11191l6872 -6872l-650 4328l1416 -1416l847 -5656l-5657 847l-1415 1415l4328 -650l-6872 6872z" />
    <glyph glyph-name="180" unicode="&#xe0b4;" horiz-adv-x="10500" 
d="M0 10459l1131 1131l7422 -7421l781 3462l1132 -1131l-991 -4385l-4384 -990l-1132 1131l3463 781z" />
    <glyph glyph-name="181" unicode="&#xe0b5;" horiz-adv-x="9700" 
d="M1131 11191l7213 -7213v3678l1272 -1272v-4809h-4810l-1272 1272h3678l-7212 7212z" />
    <glyph glyph-name="182" unicode="&#xe0b6;" horiz-adv-x="10200" 
d="M1131 11491l7416 -7416l503 2325l1131 -1131l-706 -3253l-3253 -707l-1131 1132l2325 503l-7416 7415z" />
    <glyph glyph-name="183" unicode="&#xe0b7;" horiz-adv-x="9700" 
d="M0 10059l1131 1131l7207 -7206v2491c0 28 13 43 34 22l1203 -1203c21 -21 34 -63 34 -91v-3578c0 -28 -22 -50 -50 -50h-3562c-28 0 -73 13 -94 34l-1200 1203c-14 14 -9 35 19 35h2490z" />
    <glyph glyph-name="184" unicode="&#xe0b8;" 
d="M4636 8550c51 -2 84 -40 84 -100v-1250h8000v-1600h-8000v-1250c0 -90 -60 -121 -140 -91l-4519 2081c-80 30 -79 89 -9 119l4528 2082c20 8 39 10 56 9z" />
    <glyph glyph-name="185" unicode="&#xe0b9;" 
d="M4780 8541c68 26 123 5 90 -82l-459 -1259h8309v-1600h-8309l459 -1260c20 -80 -10 -111 -90 -81l-3041 1341h-19v9l-1659 731c-80 30 -79 89 -9 119l1668 735v6h13z" />
    <glyph glyph-name="186" unicode="&#xe0ba;" 
d="M5780 9141c76 28 140 -8 140 -91v-1850h6800v-1600h-6800v-1850c0 -90 -60 -131 -140 -91l-5719 2682c-80 30 -79 88 -9 128z" />
    <glyph glyph-name="187" unicode="&#xe0bb;" 
d="M6180 9131c67 33 123 12 100 -81l-532 -1850h6972v-1600h-6972l532 -1859c20 -80 -20 -112 -100 -82l-4428 1941h-32v12l-1659 728c-80 30 -79 90 -9 110l1668 731v19h47z" />
    <glyph glyph-name="188" unicode="&#xe0bc;" 
d="M2800 9800v-2600h10000v-1600h-10000v-2600l-2800 3400z" />
    <glyph glyph-name="189" unicode="&#xe0bd;" 
d="M4390 9019c59 42 131 22 131 -69v-1850h8200v-1600h-8200v-1850c0 -80 -61 -109 -131 -69l-4338 2638c-70 50 -70 112 0 162z" />
    <glyph glyph-name="190" unicode="&#xe0be;" 
d="M1845 8581c44 51 100 68 100 -31v-1450h10800v-1600h-10800v-1450c0 -80 -50 -91 -100 -31l-1800 2162c-60 70 -60 168 0 238z" />
    <glyph glyph-name="191" unicode="&#xe0bf;" 
d="M3390 8419c60 34 131 21 131 -69v-1250h9200v-1600h-9200v-1250c0 -80 -61 -109 -131 -69l-3338 2038c-70 40 -70 122 0 162z" />
    <glyph glyph-name="192" unicode="&#xe0c0;" 
d="M3400 9000h2000l-2353 -1800h9753v-1600h-9753l2353 -1800h-2000l-3400 2600z" />
    <glyph glyph-name="193" unicode="&#xe0c1;" 
d="M4600 9800h2000l-3519 -2600h9719v-1600h-9719l3519 -2600h-2000l-4600 3400z" />
    <glyph glyph-name="194" unicode="&#xe0c2;" horiz-adv-x="12600" 
d="M2400 10200h1600l-1894 -3000h10494v-1600h-10494l1894 -3000h-1600l-2400 3800z" />
    <glyph glyph-name="195" unicode="&#xe0c3;" 
d="M3400 9800h1800l-2600 -2600h10200v-1600h-10200l2600 -2600h-1800l-3400 3400z" />
    <glyph glyph-name="196" unicode="&#xe0c4;" horiz-adv-x="12600" 
d="M1800 9200h1600l-1284 -2000h10484v-1600h-10484l1284 -2000h-1600l-1800 2800z" />
    <glyph glyph-name="197" unicode="&#xe0c5;" 
d="M2624 9000h1700c20 0 30 -21 10 -41l-1760 -1759h10200v-1600h-10190l1759 -1759c20 -20 21 -41 -9 -41h-1700c-30 0 -71 21 -91 41l-2528 2528c-20 20 -20 52 0 72l2519 2518c20 20 60 41 90 41z" />
    <glyph glyph-name="198" unicode="&#xe0c6;" 
d="M8084 8550c17 0 36 -1 56 -9l4519 -2081c80 -30 80 -89 10 -119l-4528 -2082c-80 -30 -141 11 -141 91v1250h-8000v1600h8000v1250c0 68 33 100 84 100z" />
    <glyph glyph-name="199" unicode="&#xe0c7;" 
d="M7850 8359c-22 87 18 109 91 82l3040 -1341h19v-9l1659 -732c80 -30 80 -88 10 -118l-1669 -735v-6h-12l-3047 -1341c-80 -30 -121 2 -91 82l459 1259h-8309v1600h8309z" />
    <glyph glyph-name="200" unicode="&#xe0c8;" 
d="M6800 8950c0 96 66 128 140 91l5719 -2682c80 -30 80 -88 10 -128l-5728 -2672c-80 -30 -141 11 -141 91v1850h-6800v1600h6800v1850z" />
    <glyph glyph-name="201" unicode="&#xe0c9;" 
d="M6441 8959c-22 87 27 109 100 82l4428 -1941h31v-12l1659 -728c80 -30 80 -90 10 -110l-1669 -731v-19h-47l-4412 -1931c-80 -40 -120 1 -100 81l531 1850h-6972v1600h6972z" />
    <glyph glyph-name="202" unicode="&#xe0ca;" 
d="M10000 9800l2800 -3400l-2800 -3400v2600h-10000v1600h10000v2600z" />
    <glyph glyph-name="203" unicode="&#xe0cb;" 
d="M8200 9050c0 87 66 106 131 69l4338 -2638c70 -50 70 -112 0 -162l-4338 -2638c-70 -50 -131 -11 -131 69v1850h-8200v1600h8200v1850z" />
    <glyph glyph-name="204" unicode="&#xe0cc;" 
d="M10800 8650c0 88 55 85 100 31l1800 -2162c60 -70 60 -168 0 -238l-1800 -2162c-60 -70 -100 -49 -100 31v1450h-10800v1600h10800v1450z" />
    <glyph glyph-name="205" unicode="&#xe0cd;" 
d="M9200 8350c0 87 66 106 131 69l3338 -2038c70 -40 70 -122 0 -162l-3338 -2038c-70 -40 -131 -11 -131 69v1250h-9200v1600h9200v1250z" />
    <glyph glyph-name="206" unicode="&#xe0ce;" 
d="M7400 9000h2000l3400 -2600l-3400 -2600h-2000l2353 1800h-9753v1600h9753z" />
    <glyph glyph-name="207" unicode="&#xe0cf;" 
d="M6200 9800h2000l4600 -3400l-4600 -3400h-2000l3519 2600h-9719v1600h9719z" />
    <glyph glyph-name="208" unicode="&#xe0d0;" horiz-adv-x="12600" 
d="M8600 10200h1600l2400 -3800l-2400 -3800h-1600l1894 3000h-10494v1600h10494z" />
    <glyph glyph-name="209" unicode="&#xe0d1;" 
d="M7600 9800h1800l3400 -3400l-3400 -3400h-1800l2600 2600h-10200v1600h10200z" />
    <glyph glyph-name="210" unicode="&#xe0d2;" horiz-adv-x="12600" 
d="M9200 9200h1600l1800 -2800l-1800 -2800h-1600l1284 2000h-10484v1600h10484z" />
    <glyph glyph-name="211" unicode="&#xe0d3;" 
d="M8441 9000h1700c30 0 70 -21 90 -41l2528 -2528c20 -20 20 -52 0 -72l-2518 -2518c-20 -20 -61 -41 -91 -41h-1700c-20 0 -29 21 -9 41l1759 1759h-10200v1600h10191l-1760 1759c-20 20 -20 41 10 41z" />
    <glyph glyph-name="212" unicode="&#xe0d4;" horiz-adv-x="4400" 
d="M2092 12659c29 77 86 86 119 10l2081 -4528c30 -80 -10 -141 -90 -141h-1250v-8000h-1600v8000h-1250c-90 0 -121 61 -91 141z" />
    <glyph glyph-name="213" unicode="&#xe0d5;" horiz-adv-x="4400" 
d="M2093 12659c29 77 85 86 118 10l735 -1669h6v-12l1341 -3047c30 -80 -2 -121 -82 -91l-1259 459v-8309h-1600v8309l-1259 -459c-80 -20 -112 11 -82 91l1341 3040v19h9z" />
    <glyph glyph-name="214" unicode="&#xe0d6;" horiz-adv-x="5600" 
d="M2697 12659c30 81 87 82 128 10l2672 -5728c30 -80 -11 -141 -91 -141h-1850v-6800h-1600v6800h-1850c-90 0 -131 61 -91 141z" />
    <glyph glyph-name="215" unicode="&#xe0d7;" horiz-adv-x="5500" 
d="M2692 12659c27 72 87 91 110 10l731 -1669h19v-47l1931 -4412c40 -80 -1 -120 -81 -100l-1850 531v-6972h-1600v6972l-1859 -531c-80 -20 -112 20 -82 100l1941 4428v31h12z" />
    <glyph glyph-name="216" unicode="&#xe0d8;" horiz-adv-x="6800" 
d="M3400 12800l3400 -2800h-2600v-10000h-1600v10000h-2600z" />
    <glyph glyph-name="217" unicode="&#xe0d9;" horiz-adv-x="5500" 
d="M2737 12722c28 0 56 -18 81 -53l2638 -4338c50 -70 11 -131 -69 -131h-1850v-8200h-1600v8200h-1850c-80 0 -109 61 -69 131l2637 4338c25 35 54 53 82 53z" />
    <glyph glyph-name="218" unicode="&#xe0da;" horiz-adv-x="4700" 
d="M2319 12744c43 0 84 -14 119 -44l2163 -1800c70 -60 48 -100 -32 -100h-1450v-10800h-1600v10800h-1450c-80 0 -91 50 -31 100l2163 1800c35 30 76 44 118 44z" />
    <glyph glyph-name="219" unicode="&#xe0db;" horiz-adv-x="4300" 
d="M2137 12722c30 0 61 -18 81 -53l2038 -3338c40 -70 11 -131 -69 -131h-1250v-9200h-1600v9200h-1250c-80 0 -109 61 -69 131l2037 3338c20 35 52 53 82 53z" />
    <glyph glyph-name="220" unicode="&#xe0dc;" horiz-adv-x="9600" 
d="M13 11084c-37 82 13 117 78 91l4675 -1731c78 -35 91 -106 34 -163l-884 -884l5656 -5656l-1131 -1132l-5657 5657l-884 -885c-64 -64 -127 -43 -162 35z" />
    <glyph glyph-name="221" unicode="&#xe0dd;" horiz-adv-x="9600" 
d="M44 11184c13 1 29 -2 47 -9l1700 -659l3 3l9 -10l3103 -1206c78 -35 85 -87 7 -122l-1216 -565l5875 -5875l-1131 -1132l-5875 5875l-566 -1215c-42 -71 -87 -72 -122 6l-1203 3100l-12 13l6 6l-656 1690c-26 58 -9 96 31 100z" />
    <glyph glyph-name="222" unicode="&#xe0de;" horiz-adv-x="9600" 
d="M12 11084c-35 76 6 76 35 104c14 2 31 1 50 -4l5941 -2165c78 -35 91 -106 34 -163l-1309 -1306l4809 -4809l-1131 -1132l-4810 4810l-1306 -1310c-64 -64 -135 -50 -163 35z" />
    <glyph glyph-name="223" unicode="&#xe0df;" horiz-adv-x="9600" 
d="M13 11084c-35 76 5 74 28 97c12 0 28 -3 44 -12l1694 -666l15 16l31 -31l4488 -1760c85 -28 87 -83 16 -125l-1685 -934l4928 -4928l-1131 -1132l-4931 4932l-938 -1694c-42 -71 -93 -63 -128 15l-1759 4504l-22 21l9 10z" />
    <glyph glyph-name="224" unicode="&#xe0e0;" horiz-adv-x="10100" 
d="M4809 11350l-1840 -1838l7072 -7071l-1132 -1132l-7071 7072l-1838 -1840l425 4384z" />
    <glyph glyph-name="225" unicode="&#xe0e1;" horiz-adv-x="9600" 
d="M87 11094c9 0 17 -1 28 -3l4938 -1203c85 -14 97 -84 40 -141l-1306 -1309l5797 -5797l-1131 -1132l-5797 5797l-1310 -1306c-56 -57 -119 -37 -140 41l-1203 4937c-12 74 19 116 84 116z" />
    <glyph glyph-name="226" unicode="&#xe0e2;" horiz-adv-x="9900" 
d="M3226 11294c92 7 107 -34 50 -91l-1025 -1028l7634 -7634l-1131 -1132l-7635 7635l-1028 -1025c-56 -57 -97 -28 -90 50l253 2800c7 92 80 165 172 172z" />
    <glyph glyph-name="227" unicode="&#xe0e3;" horiz-adv-x="9600" 
d="M5 10978c-21 78 25 82 59 116c16 4 34 2 53 -3l3807 -919c78 -21 97 -87 40 -144l-881 -884l6503 -6503l-1131 -1132l-6503 6503l-885 -881c-57 -57 -123 -37 -144 41z" />
    <glyph glyph-name="228" unicode="&#xe0e4;" horiz-adv-x="9700" 
d="M0 11125l4241 -565l1415 -1413l-2937 391l6897 -6897l-1132 -1132l-6896 6897l390 -2937l-1412 1415z" />
    <glyph glyph-name="229" unicode="&#xe0e5;" horiz-adv-x="9700" 
d="M0 11125l5656 -847l1416 -1416l-4328 650l6872 -6871l-1132 -1132l-6872 6872l650 -4328l-1415 1416z" />
    <glyph glyph-name="230" unicode="&#xe0e6;" horiz-adv-x="10500" 
d="M5375 11575l1131 -1131l-3462 -782l7422 -7421l-1132 -1132l-7421 7422l-782 -3462l-1131 1131l991 4384z" />
    <glyph glyph-name="231" unicode="&#xe0e7;" horiz-adv-x="9700" 
d="M0 11125h4809l1272 -1272h-3678l7213 -7212l-1132 -1132l-7212 7213v-3678l-1272 1272v4809z" />
    <glyph glyph-name="232" unicode="&#xe0e8;" horiz-adv-x="10200" 
d="M3959 11491l1132 -1132l-2325 -503l7415 -7415l-1131 -1132l-7416 7416l-503 -2325l-1131 1131l706 3253z" />
    <glyph glyph-name="233" unicode="&#xe0e9;" horiz-adv-x="9700" 
d="M50 11125h3563c28 0 72 -13 93 -34l1200 -1203c14 -14 10 -35 -18 -35h-2491l7213 -7212l-1132 -1132l-7206 7207v-2491c0 -28 -13 -43 -34 -22l-1204 1203c-21 21 -34 63 -34 91v3578c0 28 22 50 50 50z" />
    <glyph glyph-name="234" unicode="&#xe0ea;" horiz-adv-x="5200" 
d="M2600 12800l2600 -3400v-2000l-1800 2353v-9753h-1600v9753l-1800 -2353v2000z" />
    <glyph glyph-name="235" unicode="&#xe0eb;" horiz-adv-x="6800" 
d="M3400 12800l3400 -4600v-2000l-2600 3519v-9719h-1600v9719l-2600 -3519v2000z" />
    <glyph glyph-name="236" unicode="&#xe0ec;" horiz-adv-x="7600" 
d="M3800 12700l3800 -2400v-1600l-3000 1894v-10494h-1600v10494l-3000 -1894v1600z" />
    <glyph glyph-name="237" unicode="&#xe0ed;" horiz-adv-x="6800" 
d="M3400 12800l3400 -3400v-1800l-2600 2600v-10200h-1600v10200l-2600 -2600v1800z" />
    <glyph glyph-name="238" unicode="&#xe0ee;" horiz-adv-x="5600" 
d="M2800 12700l2800 -1800v-1600l-2000 1284v-10484h-1600v10484l-2000 -1284v1600z" />
    <glyph glyph-name="239" unicode="&#xe0ef;" horiz-adv-x="5200" 
d="M2606 12775c12 0 25 -5 35 -15l2518 -2519c20 -20 41 -61 41 -91v-1700c0 -20 -21 -29 -41 -9l-1759 1759v-10200h-1600v10191l-1759 -1760c-20 -20 -41 -20 -41 10v1700c0 30 21 70 41 90l2528 2528c10 10 25 16 37 16z" />
    <glyph glyph-name="240" unicode="&#xe0f0;" horiz-adv-x="9600" 
d="M9475 11169c13 6 44 18 50 12c43 0 62 -38 41 -91l-1732 -4674c-35 -78 -105 -92 -162 -35l-884 885l-5657 -5657l-1131 1131l5656 5657l-884 884c-64 64 -44 128 34 163z" />
    <glyph glyph-name="241" unicode="&#xe0f1;" horiz-adv-x="9600" 
d="M9475 11169c63 28 124 3 91 -78l-660 -1700l4 -3l-10 -10l-1206 -3103c-35 -78 -87 -84 -122 -6l-566 1215l-5875 -5875l-1131 1132l5875 5875l-1216 565c-71 42 -71 87 7 122l3100 1203l12 13l6 -7z" />
    <glyph glyph-name="242" unicode="&#xe0f2;" horiz-adv-x="9600" 
d="M9475 11169c13 6 44 18 50 12c44 -1 66 -39 50 -97l-2165 -5940c-35 -78 -106 -92 -163 -35l-1306 1310l-4810 -4810l-1131 1131l4809 4810l-1309 1306c-64 64 -51 135 34 163z" />
    <glyph glyph-name="243" unicode="&#xe0f3;" horiz-adv-x="9600" 
d="M9525 11181c43 0 61 -36 35 -84l-666 -1694l16 -16l-32 -31l-1759 -4488c-28 -85 -83 -86 -125 -15l-935 1684l-4928 -4928l-1131 1131l4931 4932l-1693 937c-71 42 -63 93 15 128l4503 1760l22 22l10 -10l1687 660c19 9 36 12 50 12z" />
    <glyph glyph-name="244" unicode="&#xe0f4;" horiz-adv-x="10100" 
d="M5231 11350l4385 -425l425 -4384l-1838 1840l-7072 -7072l-1131 1132l7072 7071z" />
    <glyph glyph-name="245" unicode="&#xe0f5;" horiz-adv-x="9600" 
d="M9497 11094c65 0 96 -42 84 -116l-1203 -4938c-14 -85 -83 -97 -140 -40l-1310 1306l-5797 -5797l-1131 1132l5797 5797l-1306 1309c-57 56 -38 120 40 141l4938 1203c11 2 19 3 28 3z" />
    <glyph glyph-name="246" unicode="&#xe0f6;" horiz-adv-x="9900" 
d="M6659 11294l2800 -253c92 -7 165 -80 172 -172l253 -2800c7 -92 -33 -107 -90 -50l-1028 1025l-7635 -7635l-1131 1132l7634 7634l-1025 1028c-57 56 -28 98 50 91z" />
    <glyph glyph-name="247" unicode="&#xe0f7;" horiz-adv-x="9600" 
d="M9497 11094c63 2 103 -48 84 -116l-918 -3806c-21 -78 -87 -98 -144 -41l-885 881l-6503 -6503l-1131 1131l6503 6504l-881 884c-57 57 -38 123 40 144l3807 919c10 3 19 3 28 3z" />
    <glyph glyph-name="248" unicode="&#xe0f8;" horiz-adv-x="9700" 
d="M9616 11125l-566 -4241l-1412 -1415l390 2937l-6897 -6897l-1131 1132l6897 6897l-2938 -391l1416 1412z" />
    <glyph glyph-name="249" unicode="&#xe0f9;" horiz-adv-x="9700" 
d="M9616 11125l-847 -5656l-1416 -1416l650 4328l-6872 -6872l-1131 1132l6872 6871l-4328 -650l1415 1416z" />
    <glyph glyph-name="250" unicode="&#xe0fa;" horiz-adv-x="10500" 
d="M5091 11575c1461 -330 2923 -661 4384 -991l991 -4384l-1132 -1131l-781 3462l-7422 -7422l-1131 1131l7422 7422l-3463 782z" />
    <glyph glyph-name="251" unicode="&#xe0fb;" horiz-adv-x="9700" 
d="M4806 11125h4810v-4809l-1272 -1272v3678l-7213 -7213l-1131 1132l7212 7212h-3678z" />
    <glyph glyph-name="252" unicode="&#xe0fc;" horiz-adv-x="10200" 
d="M6222 11491l3253 -707l706 -3253l-1131 -1131l-503 2325l-7416 -7416l-1131 1132l7416 7415l-2325 503z" />
    <glyph glyph-name="253" unicode="&#xe0fd;" horiz-adv-x="9700" 
d="M5988 11119h3578c28 0 50 -22 50 -50v-3563c0 -28 -14 -73 -35 -94l-1203 -1200c-14 -14 -34 -9 -34 19v2491l-7213 -7213l-1131 1131l7206 7207h-2490c-28 0 -43 13 -22 34l1203 1203c21 21 63 35 91 35z" />
    <glyph glyph-name="254" unicode="&#xe0fe;" horiz-adv-x="2800" 
d="M1291 12659c29 77 86 86 119 10l1281 -2928c30 -80 -11 -141 -91 -141h-850v-9600h-800v9600h-850c-80 0 -120 61 -90 141z" />
    <glyph glyph-name="255" unicode="&#xe0ff;" horiz-adv-x="2800" 
d="M1361 12719c19 0 40 -20 60 -60l334 -859h6v-16l950 -2444c30 -80 -11 -111 -81 -71l-869 497v-9766h-800v9766l-868 -497c-80 -40 -112 -9 -82 71l950 2426v34h13l337 859c15 40 31 60 50 60z" />
    <glyph glyph-name="256" unicode="&#xe100;" horiz-adv-x="4000" 
d="M1951 12719h-1c22 0 45 -20 60 -60l1881 -4319c30 -80 -11 -140 -91 -140h-1450v-8200h-800v8200h-1450c-80 0 -120 60 -90 140l1881 4319c15 40 38 60 60 60z" />
    <glyph glyph-name="257" unicode="&#xe101;" horiz-adv-x="4000" 
d="M1952 12719c19 0 35 -20 50 -60l344 -859h6v-16l1541 -3844c30 -70 -2 -99 -72 -59l-1469 888v-8769h-800v8769l-1469 -888c-70 -40 -102 -21 -72 59c627 1573 1257 3143 1881 4719c20 40 41 60 60 60z" />
    <glyph glyph-name="258" unicode="&#xe102;" horiz-adv-x="4700" 
d="M2324 12747c43 0 83 -13 118 -38l2163 -1618c70 -50 49 -91 -31 -91h-1850v-11000h-800v11000h-1850c-80 0 -102 41 -32 91l2163 1618c35 25 77 38 119 38z" />
    <glyph glyph-name="259" unicode="&#xe103;" horiz-adv-x="3900" 
d="M1937 12722c26 0 49 -18 69 -53l1850 -3138c50 -70 11 -131 -69 -131h-1450v-9400h-800v9400h-1450c-80 0 -109 61 -69 131l1837 3138c25 35 56 53 82 53z" />
    <glyph glyph-name="260" unicode="&#xe104;" horiz-adv-x="3500" 
d="M1724 12747c43 0 83 -13 118 -38l1563 -1218c70 -50 49 -91 -31 -91h-1250v-11400h-800v11400h-1250c-80 0 -102 41 -32 91l1563 1218c35 25 77 38 119 38z" />
    <glyph glyph-name="261" unicode="&#xe105;" horiz-adv-x="2700" 
d="M1345 12722c25 0 48 -18 63 -53l1250 -2138c50 -70 11 -131 -69 -131h-840v-10400h-800v10400h-860c-80 0 -112 61 -72 131l1250 2138c25 35 53 53 78 53z" />
    <glyph glyph-name="262" unicode="&#xe106;" horiz-adv-x="9300" 
d="M44 10984c13 1 29 -2 47 -9l2975 -1166c78 -35 94 -105 37 -162l-603 -603l6791 -6788l-566 -565l-6787 6790l-604 -603c-57 -57 -127 -40 -162 38l-1159 2968c-26 58 -9 96 31 100z" />
    <glyph glyph-name="263" unicode="&#xe107;" horiz-adv-x="9300" 
d="M21 10978c16 5 40 2 72 -9l847 -372l3 3l10 -9l2400 -1057c78 -35 71 -85 -7 -106l-965 -266l6906 -6906l-566 -566l-6906 6907l-266 -966c-28 -85 -71 -84 -106 -6l-1044 2387l-22 22l10 10l-372 847c-22 49 -20 79 6 87z" />
    <glyph glyph-name="264" unicode="&#xe108;" horiz-adv-x="9300" 
d="M47 10981c14 0 31 -3 50 -12l4384 -1725c78 -35 92 -106 35 -163l-1025 -1025l5800 -5800l-566 -566l-5800 5800l-1025 -1024c-57 -56 -128 -44 -163 34l-1725 4384c-26 58 -8 96 35 97z" />
    <glyph glyph-name="265" unicode="&#xe109;" horiz-adv-x="9300" 
d="M10 10884c-31 91 10 109 78 78l854 -365l3 3l6 -6l3812 -1635c71 -28 69 -69 -9 -90l-1666 -413l6200 -6200l-565 -565l-6200 6200l-413 -1666c-21 -78 -55 -87 -90 -9z" />
    <glyph glyph-name="266" unicode="&#xe10a;" horiz-adv-x="9800" 
d="M3228 11228c85 14 98 -27 41 -84l-1307 -1306l7778 -7782l-565 -565l-7782 7778l-1306 -1307c-57 -57 -98 -44 -84 41l381 2675c14 85 84 155 169 169z" />
    <glyph glyph-name="267" unicode="&#xe10b;" horiz-adv-x="9400" 
d="M3 10878c-14 81 28 127 106 106l3528 -912c85 -14 101 -87 44 -144l-1025 -1025l6647 -6647l-566 -566l-6647 6647l-1025 -1025c-57 -56 -123 -34 -144 44z" />
    <glyph glyph-name="268" unicode="&#xe10c;" horiz-adv-x="9600" 
d="M2378 11188c85 14 101 -28 44 -85l-885 -884l8063 -8063l-566 -565l-8062 8062l-885 -884c-57 -56 -98 -42 -84 43l240 1966c14 85 84 155 169 169z" />
    <glyph glyph-name="269" unicode="&#xe10d;" horiz-adv-x="9400" 
d="M56 10984c14 1 29 -2 47 -9l2397 -628c85 -14 97 -84 40 -141l-594 -594l7357 -7356l-566 -566l-7356 7357l-606 -610c-56 -56 -120 -34 -141 44l-631 2397c-11 64 12 102 53 106z" />
    <glyph glyph-name="270" unicode="&#xe10e;" horiz-adv-x="9400" 
d="M0 11025l3959 -566l779 -778l-3300 472l7896 -7897l-565 -565l-7897 7897l472 -3300l-778 778z" />
    <glyph glyph-name="271" unicode="&#xe10f;" horiz-adv-x="9400" 
d="M0 11025l4950 -706l847 -850l-4291 615l7828 -7828l-565 -565l-7828 7828l615 -4291l-850 847z" />
    <glyph glyph-name="272" unicode="&#xe110;" horiz-adv-x="10000" 
d="M4525 11291l706 -707l-3465 -494l8134 -8134l-566 -566l-8134 8135l-494 -3466l-706 707l566 3959z" />
    <glyph glyph-name="273" unicode="&#xe111;" horiz-adv-x="9400" 
d="M0 11025h4241l778 -778h-3675l7990 -7991l-565 -565l-7991 7990v-3675l-778 778v4241z" />
    <glyph glyph-name="274" unicode="&#xe112;" horiz-adv-x="9800" 
d="M3678 11250l706 -706l-2753 -360l8128 -8128l-565 -565l-8128 8128l-360 -2753l-706 706l425 3253z" />
    <glyph glyph-name="275" unicode="&#xe113;" horiz-adv-x="9400" 
d="M0 11025h3394l706 -706h-2828l8062 -8063l-565 -566l-8063 8063v-2828l-706 706v3394z" />
    <glyph glyph-name="276" unicode="&#xe114;" horiz-adv-x="4800" 
d="M2400 12800l2400 -3200v-1100l-2000 2666v-11166h-800v11166l-2000 -2666v1100z" />
    <glyph glyph-name="277" unicode="&#xe115;" horiz-adv-x="6000" 
d="M3000 12800l3000 -4000v-1200l-2600 3466v-11066h-800v11066l-2600 -3466v1200z" />
    <glyph glyph-name="278" unicode="&#xe116;" horiz-adv-x="6400" 
d="M3200 12800l3200 -2400v-1000l-2800 2100v-11500h-800v11500l-2800 -2100v1000z" />
    <glyph glyph-name="279" unicode="&#xe117;" horiz-adv-x="6000" 
d="M3000 12800l3000 -3000v-1100l-2600 2600v-11300h-800v11300l-2600 -2600v1100z" />
    <glyph glyph-name="280" unicode="&#xe118;" horiz-adv-x="5200" 
d="M2600 12800l2600 -2000v-1000l-2200 1694v-11494h-800v11494l-2200 -1694v1000z" />
    <glyph glyph-name="281" unicode="&#xe119;" horiz-adv-x="4800" 
d="M2400 12800l2400 -2400v-1000l-2000 2000v-11400h-800v11400l-2000 -2000v1000z" />
    <glyph glyph-name="282" unicode="&#xe11a;" horiz-adv-x="9300" 
d="M9194 10969c63 28 122 3 90 -78l-1165 -2975c-35 -78 -106 -95 -163 -38l-603 603l-6787 -6790l-566 565l6791 6788l-603 603c-57 57 -41 127 37 162z" />
    <glyph glyph-name="283" unicode="&#xe11b;" horiz-adv-x="9300" 
d="M9250 10975c39 3 49 -27 28 -91l-372 -847l4 -3l-10 -9l-1056 -2400c-35 -78 -85 -72 -106 6l-266 966l-6906 -6907l-566 566l6906 6906l-965 266c-85 28 -85 71 -7 106l2388 1044l22 22l9 -9l847 371c19 9 37 12 50 13z" />
    <glyph glyph-name="284" unicode="&#xe11c;" horiz-adv-x="9300" 
d="M9194 10969c65 29 123 2 84 -85l-1725 -4384c-35 -78 -105 -91 -162 -34l-1025 1025l-5800 -5800l-566 565l5800 5800l-1025 1025c-56 57 -44 128 34 163z" />
    <glyph glyph-name="285" unicode="&#xe11d;" horiz-adv-x="9300" 
d="M9194 10969c67 22 118 11 78 -78l-366 -853l3 -4l-6 -6l-1634 -3812c-28 -71 -70 -69 -91 9l-412 1666l-6200 -6200l-566 565l6200 6200l-1666 413c-78 21 -87 55 -9 90z" />
    <glyph glyph-name="286" unicode="&#xe11e;" horiz-adv-x="9800" 
d="M6462 11228c12 3 29 4 50 0l2676 -381c85 -14 154 -84 168 -169l382 -2675c14 -85 -28 -98 -85 -41l-1306 1307l-7781 -7779l-566 566l7778 7781l-1306 1307c-42 42 -47 75 -10 84z" />
    <glyph glyph-name="287" unicode="&#xe11f;" horiz-adv-x="9300" 
d="M9216 10994c65 0 97 -42 78 -110l-913 -3528c-14 -85 -86 -101 -143 -44l-1026 1025l-6646 -6647l-566 566l6647 6647l-1025 1025c-56 57 -34 123 44 144l3522 919c11 2 19 3 28 3z" />
    <glyph glyph-name="288" unicode="&#xe120;" horiz-adv-x="9600" 
d="M7178 11103c-65 65 -30 97 44 85l1966 -241c85 -14 154 -84 168 -169l241 -1966c14 -85 -28 -100 -85 -43l-884 884l-8062 -8062l-566 565l8062 8063z" />
    <glyph glyph-name="289" unicode="&#xe121;" horiz-adv-x="9300" 
d="M9216 10994c65 0 93 -42 68 -104l-628 -2396c-14 -85 -83 -98 -140 -41l-594 594l-7356 -7357l-566 566l7356 7356l-609 607c-56 56 -34 119 44 140l2397 632c11 2 19 3 28 3z" />
    <glyph glyph-name="290" unicode="&#xe122;" horiz-adv-x="9400" 
d="M9334 11025l-565 -3959l-778 -778l471 3300l-7896 -7897l-566 565l7897 7897l-3300 -472l778 778z" />
    <glyph glyph-name="291" unicode="&#xe123;" horiz-adv-x="9400" 
d="M9334 11025l-706 -4950l-850 -847l616 4291l-7828 -7828l-566 565l7828 7828l-4290 -615l846 850z" />
    <glyph glyph-name="292" unicode="&#xe124;" horiz-adv-x="10000" 
d="M5375 11291l3959 -566l566 -3959l-706 -707l-494 3466l-8134 -8135l-566 566l8134 8134l-3465 494z" />
    <glyph glyph-name="293" unicode="&#xe125;" horiz-adv-x="9400" 
d="M5094 11025h4240v-4241l-778 -778v3675l-7990 -7990l-566 565l7991 7991h-3675z" />
    <glyph glyph-name="294" unicode="&#xe126;" horiz-adv-x="9800" 
d="M6081 11250l3253 -425l425 -3253l-706 -706l-359 2753l-8128 -8128l-566 565l8128 8128l-2753 360z" />
    <glyph glyph-name="295" unicode="&#xe127;" horiz-adv-x="9400" 
d="M5941 11025h3393v-3394l-706 -706v2828l-8062 -8062l-566 565l8062 8063h-2828z" />
    <glyph glyph-name="296" unicode="&#xe128;" horiz-adv-x="12000" 
d="M5600 11000h800v-9200h-800v9200zM7000 10000h800v-7200h-800v7200zM2800 9400h800v-6000h-800v6000zM4200 9200h800v-5600h-800v5600zM8400 8800h800v-4800h-800v4800zM1400 8600h800v-4400h-800v4400zM9800 7400h800v-2000h-800v2000zM0 7200h800v-1600h-800v1600z
M11200 7000h800v-1200h-800v1200z" />
    <glyph glyph-name="297" unicode="&#xe129;" 
d="M1875 10900l566 -566c-1014 -1014 -1641 -2410 -1641 -3959s627 -2945 1641 -3959l-566 -566c-1158 1158 -1875 2760 -1875 4525s717 3367 1875 4525zM10925 10900c1158 -1158 1875 -2760 1875 -4525s-717 -3367 -1875 -4525l-566 566c1014 1014 1641 2410 1641 3959
s-627 2945 -1641 3959zM2750 6375c0 1005 409 1921 1069 2581l565 -566c-516 -516 -834 -1226 -834 -2015s318 -1500 834 -2016l-565 -565c-660 660 -1069 1575 -1069 2581zM8981 8956c660 -660 1069 -1576 1069 -2581c0 -1006 -409 -1921 -1069 -2581l-565 565
c516 516 834 1227 834 2016s-318 1499 -834 2015zM6400 7375c552 0 1000 -448 1000 -1000s-448 -1000 -1000 -1000s-1000 448 -1000 1000s448 1000 1000 1000z" />
    <glyph glyph-name="298" unicode="&#xe12a;" 
d="M6400 12800c3530 0 6400 -2870 6400 -6400s-2870 -6400 -6400 -6400s-6400 2870 -6400 6400s2870 6400 6400 6400zM6400 12000c-3098 0 -5600 -2502 -5600 -5600c0 -1404 515 -2687 1366 -3669l7903 7903c-982 851 -2265 1366 -3669 1366zM10634 10069l-7903 -7903
c982 -851 2265 -1366 3669 -1366c3098 0 5600 2502 5600 5600c0 1404 -515 2687 -1366 3669z" />
    <glyph glyph-name="299" unicode="&#xe12b;" 
d="M0 12000h400v-200h-200v-800h400v-200h-400v-800h200v-200h-200v-800h400v-200h-400v-800h200v-200h-200v-800h400v-200h-400v-800h200v-200h-200v-800h400v-200h-400v-800h200v-200h-200v-800h400v-200h-400v-800h200v-200h-200v-800h12600v-200h-12800v11200z
M6200 11200h1200v-10000h-1200v10000zM8600 9400h1200v-8200h-1200v8200zM11000 8400h1200v-7200h-1200v7200zM3800 7400h1200v-6200h-1200v6200zM1400 6200h1200v-5000h-1200v5000z" />
    <glyph glyph-name="300" unicode="&#xe12c;" 
d="M0 10400h200v-8000h-200v8000zM400 10400h1000v-8000h-1000v8000zM1600 10400h400v-8000h-400v8000zM2200 10400h600v-8000h-600v8000zM3000 10400h200v-8000h-200v8000zM3400 10400h600v-8000h-600v8000zM4200 10400h200v-8000h-200v8000zM4600 10400h200v-8000h-200
v8000zM5000 10400h200v-8000h-200v8000zM5400 10400h400v-8000h-400v8000zM6000 10400h200v-8000h-200v8000zM6400 10400h800v-8000h-800v8000zM7400 10400h200v-8000h-200v8000zM7800 10400h400v-8000h-400v8000zM8400 10400h1200v-8000h-1200v8000zM9800 10400h200v-8000
h-200v8000zM10200 10400h400v-8000h-400v8000zM10800 10400h200v-8000h-200v8000zM11200 10400h800v-8000h-800v8000zM12200 10400h200v-8000h-200v8000zM12600 10400h200v-8000h-200v8000z" />
    <glyph glyph-name="301" unicode="&#xe12d;" 
d="M6343 11900h119c187 -29 340 -205 340 -395c0 -72 -35 -178 -77 -236l-3000 -4200c-66 -104 -200 -169 -325 -169c-318 0 -510 372 -325 631l3000 4200c52 79 171 154 268 169zM7012 11328l2713 -3797c51 -61 92 -175 92 -255c0 -155 -118 -323 -264 -376h-272
c-73 26 -166 102 -206 169l-2553 3572zM2950 7700c-205 -273 -209 -667 100 -888c106 -76 229 -112 350 -112c187 0 371 86 488 250l534 750h3956l535 -750c117 -164 300 -250 487 -250c479 0 768 558 488 950l-35 50h2797c83 0 150 -67 150 -150v-500
c0 -83 -67 -150 -150 -150h-562l-1607 -5712c-45 -160 -215 -288 -381 -288h-7400c-166 0 -336 128 -381 288l-1607 5712h-562c-83 0 -150 67 -150 150v500c0 83 67 150 150 150h2800zM3400 7500c-110 0 -200 -90 -200 -200s90 -200 200 -200s200 90 200 200
s-90 200 -200 200zM9400 7500c-110 0 -200 -90 -200 -200s90 -200 200 -200s200 90 200 200s-90 200 -200 200zM3194 5753c-68 246 -458 146 -388 -106l1000 -3600c25 -88 106 -147 194 -147c144 0 227 134 194 253zM5400 5722c-29 257 -429 214 -400 -44l400 -3600
c11 -102 99 -178 200 -178c126 0 213 107 200 222zM7800 5678c29 260 -372 297 -400 44l-400 -3600c-13 -115 75 -222 200 -222c101 0 189 76 200 178zM9994 5647c71 254 -321 348 -388 106l-1000 -3600c-33 -119 50 -253 194 -253c88 0 169 59 194 147z" />
    <glyph glyph-name="302" unicode="&#xe12e;" 
d="M300 9600h11200c166 0 300 -134 300 -300v-1500h850c83 0 150 -67 150 -150v-2500c0 -83 -67 -150 -150 -150h-850v-1500c0 -166 -134 -300 -300 -300h-11200c-166 0 -300 134 -300 300v5800c0 166 134 300 300 300z" />
    <glyph glyph-name="303" unicode="&#xe12f;" 
d="M1000 -0c-550 0 -1000 450 -1000 1000c0 283 137 504 272 681c1375 1972 2752 3942 4128 5913v4806h-200h-9c-111 0 -201 89 -201 200c0 105 86 195 191 200h10h9h4400c110 0 200 -90 200 -200s-90 -200 -200 -200h-200v-4806l4125 -5907l3 -6
c135 -177 272 -398 272 -681c0 -550 -450 -1000 -1000 -1000h-10800zM7195 11500c0 54 45 100 101 100h4h700v800h-3200v-4931c-668 -956 -1335 -1913 -2003 -2869h3806c-63 84 -103 187 -103 300c0 276 224 500 500 500s500 -224 500 -500c0 -113 -40 -216 -103 -300h2606
l-559 800h-944h-4c-55 0 -101 45 -101 100c0 54 45 100 101 100h4h806l-559 800h-847h-4c-55 0 -101 45 -101 100c0 54 45 100 101 100h4h706l-559 800h-747h-4c-55 0 -101 45 -101 100c0 54 45 100 101 100h4h700v800h-700h-4c-55 0 -101 45 -101 100c0 54 45 100 101 100
h4h700v800h-700h-4c-55 0 -101 45 -101 100c0 54 45 100 101 100h4h700v800h-700h-4c-55 0 -101 45 -101 100c0 54 45 100 101 100h4h700v800h-700h-4c-55 0 -101 45 -101 100zM6000 6200c110 0 200 -90 200 -200s-90 -200 -200 -200s-200 90 -200 200s90 200 200 200z
M6100 3400c-166 0 -300 -134 -300 -300s134 -300 300 -300s300 134 300 300s-134 300 -300 300zM6900 1800c-55 0 -100 -45 -100 -100s45 -100 100 -100s100 45 100 100s-45 100 -100 100z" />
    <glyph glyph-name="304" unicode="&#xe130;" horiz-adv-x="11200" 
d="M5600 12800c331 0 600 -269 600 -600c0 -169 -69 -322 -181 -431c1347 -203 2381 -1365 2381 -2769v-410c0 -1560 117 -2971 1600 -3993c741 -511 1200 -1217 1200 -1997v-200h-11200v200c0 780 459 1486 1200 1997c1483 1022 1600 2433 1600 3993v410
c0 1404 1034 2566 2381 2769c-112 109 -181 262 -181 431c0 331 269 600 600 600zM4119 2200h2962c75 -185 119 -388 119 -600c0 -884 -716 -1600 -1600 -1600s-1600 716 -1600 1600c0 212 44 415 119 600z" />
    <glyph glyph-name="305" unicode="&#xe131;" 
d="M0 12800h4000v-4000h-4000v4000zM4400 12800h1200v-400h-400v-400h-400v-400h-400v1200zM4800 11600h800v-400h-400v-400h-400v800zM5600 11600v400h400v400h400v-400h400v-400h-400v-400h400v-400h400v400h800v-800h-400v-800h400v-400h-400v-400h400v-400h800v-400
h-400v-400h-400v400h-400v400h-400v-800h-400v400h-400v800h-400v-400h-400v-400h-400v400h-400v400h-400v400h800v-400h400v400h-400v800h400v400h-400v400h800v-400h400v400h-400v800h-400zM6400 12400v400h400v-400h-400zM6800 11600h400v-400h-400v400zM8000 11200v400
h400v-400h-400zM8000 11600h-400v800h-400v400h1200v-400h-400v-800zM8000 9600v400h400v-400h-400zM8000 9200h400v-400h-400v400zM8800 8000h400v-400h-400v400zM9200 8000v400h400v-400h-400zM7200 7600h400v-800h-400v800zM7200 6800v-400h-400v400h400zM6800 6800h-800
v1200h400v-400h400v-800zM6000 6800v-400h400v-400h400v-800h400v-400h-400v-400h-400v400h-800v400h-1200v400h1200v1200h400zM7200 4800h400v-1200h-400v-400h-400v-400h400v400h400v-800h-400v-800h-800v-400h-400v-400h-400v800h400v400h-400v800h400v-400h400v400h-400
v400h400v800h800v800zM5600 800v-400h-400v400h400zM5600 400h800v-400h-800v400zM6400 400v400h400v-400h-400zM6800 800v400h400v-400h-400zM7200 800h400v-800h-400v800zM5200 400v-400h-800v1200h800v-400h-400v-400h400zM5600 1600h-400v400h400v-400zM5200 2000h-400
v400h-400v400h400v400h400v400h400v-800h-400v-800zM4800 2000v-400h-400v400h400zM5200 3600h-800v400h800v-400zM5200 4000v400h400v-400h-400zM5600 4000h400v-400h-400v400zM6000 4000v400h400v-400h-400zM4400 5200v-800h-400v400h-1200v400h400v400h400v-400h800z
M2800 5200h-400v400h400v-400zM2400 5600h-400v400h-400v400h400v400h400v400h800v400h-800v400h1200v400h400v-800h-400v-400h400v-400h400v1200h800v-400h-400v-1200h400v-400h-800v400h-400v-400h-400v400h-400v-800h-400v400h-400v-400zM1600 6400h-400v-800h-400v400
h-400v400h-400v800h800v-400h400v400h400v400h800v-400h-400v-400h-400v-400zM1200 5600h400v-400h400v-400h-400v-400h-1600v800h400v-400h800v800zM400 5200v400h400v-400h-400zM400 5600h-400v400h400v-400zM800 7200v400h400v-400h-400zM800 7600h-800v800h400v-400h400
v-400zM800 8000v400h800v-800h-400v400h-400zM2400 8000h-400v400h400v-400zM5200 7600h400v-800h-400v800zM5200 10000h-800v400h800v-400zM8800 12800h4000v-4000h-4000v4000zM400 12400v-3200h3200v3200h-3200zM9200 12400v-3200h3200v3200h-3200zM1200 11600h1600v-1600
h-1600v1600zM10000 11600h1600v-1600h-1600v1600zM6800 10400v-400h400v400h-400zM6800 9600v-800h400v800h-400zM9600 7200h800v-800h800v800h800v-1600h-2400v-1600h2400v-800h-2400v-1600h2400v-1600h-800v800h-800v-800h-800v800h-1600v800h800v4000h-800v800h1600v800z
M12000 5600h800v-1600h-800v1600zM12000 3200h800v-1600h-800v1600zM0 4000h4000v-4000h-4000v4000zM400 3600v-3200h3200v3200h-3200zM1200 2800h1600v-1600h-1600v1600z" />
    <glyph glyph-name="306" unicode="&#xe132;" 
d="M2800 12800h800v-1600h800v1600h800v-1634c1135 -190 2000 -1177 2000 -2366c0 -740 -335 -1401 -862 -1841c979 -436 1662 -1418 1662 -2559c0 -1513 -1200 -2744 -2700 -2797v-3h-100v-1600h-800v1600h-800v-1600h-800v1600h-2800v600h800c331 0 600 269 600 600v7200
c0 331 -269 600 -600 600h-800v600h2800v1600zM2800 10600v-3400h1500c939 0 1700 761 1700 1700s-761 1700 -1700 1700h-1500zM8800 8600h4000v-4000h-4000v4000zM9600 7800v-2400h2400v2400h-2400zM2800 6600v-4400h1653c1215 0 2200 985 2200 2200s-985 2200 -2200 2200
h-1653z" />
    <glyph glyph-name="307" unicode="&#xe133;" horiz-adv-x="11600" 
d="M2800 12800h800v-1600h800v1600h800v-1634c1135 -190 2000 -1177 2000 -2366c0 -740 -335 -1401 -862 -1841c979 -436 1662 -1418 1662 -2559c0 -1513 -1200 -2744 -2700 -2797v-3h-100v-1600h-800v1600h-800v-1600h-800v1600h-2800v600h800c331 0 600 269 600 600v7200
c0 331 -269 600 -600 600h-800v600h2800v1600zM2800 10600v-3400h1500c939 0 1700 761 1700 1700s-761 1700 -1700 1700h-1500zM9600 9200v-800h1400v-800h-1400v-800l-1600 1200zM10000 7200l1600 -1200l-1600 -1200v800h-1400v800h1400v800zM2800 6600v-4400h1653
c1215 0 2200 985 2200 2200s-985 2200 -2200 2200h-1653z" />
    <glyph glyph-name="308" unicode="&#xe134;" horiz-adv-x="8000" 
d="M2800 12800h800v-1600h800v1600h800v-1634c1135 -190 2000 -1177 2000 -2366c0 -740 -335 -1401 -862 -1841c979 -436 1662 -1418 1662 -2559c0 -1513 -1200 -2744 -2700 -2797v-3h-100v-1600h-800v1600h-800v-1600h-800v1600h-2800v600h800c331 0 600 269 600 600v7200
c0 331 -269 600 -600 600h-800v600h2800v1600zM2800 10600v-3400h1500c939 0 1700 761 1700 1700s-761 1700 -1700 1700h-1500zM2800 6600v-4400h1653c1215 0 2200 985 2200 2200s-985 2200 -2200 2200h-1653z" />
    <glyph glyph-name="309" unicode="&#xe135;" horiz-adv-x="6400" 
d="M2600 12800l3800 -3800l-2519 -2600l2519 -2600l-3800 -3800v5200l-2000 -2000l-600 600l2600 2600l-2600 2600l600 600l2000 -2000v5200zM3400 10800v-3600l1800 1800zM3400 5600v-3600l1800 1800z" />
    <glyph glyph-name="310" unicode="&#xe136;" horiz-adv-x="10800" 
d="M0 12700h6800c1767 0 3200 -1433 3200 -3200c0 -1115 -570 -2096 -1434 -2669c1311 -538 2234 -1826 2234 -3331c0 -1988 -1612 -3600 -3600 -3600h-7000v600h1000c331 0 600 269 600 600v10400c0 331 -269 600 -600 600h-1200v600zM4000 12100v-5000h1100
c1381 0 2500 1119 2500 2500s-1119 2500 -2500 2500h-1100zM4000 6500v-6000h1600c1657 0 3000 1343 3000 3000s-1343 3000 -3000 3000h-1600z" />
    <glyph glyph-name="311" unicode="&#xe137;" horiz-adv-x="12000" 
d="M500 12800h100v-10966c0 -12 2 -24 6 -34h-6c-239 0 -453 -105 -600 -272v10572c0 12 2 26 3 38c-2 21 -3 40 -3 62c0 297 216 543 500 591v9zM800 12800h8400v-5200l600 600l600 -600v5200h1300c160 0 288 -123 297 -281v-3h3v-10716h-11206c4 11 6 22 6 34v10966z
M600 1600h11400v-400h-11200c-221 0 -400 -179 -400 -400s179 -400 400 -400h11200v-400h-11400c-331 0 -600 269 -600 600v400c0 331 269 600 600 600z" />
    <glyph glyph-name="312" unicode="&#xe138;" horiz-adv-x="4400" 
d="M0 12800h4400v-12800l-2200 1425l-2200 -1425v12800z" />
    <glyph glyph-name="313" unicode="&#xe139;" 
d="M0 12400h12800v-800h-12800v800zM200 11400h12400v-10850c0 -83 -67 -150 -150 -150h-12100c-83 0 -150 67 -150 150v10850zM4950 10600c-82 0 -150 -68 -150 -150v-900c0 -82 68 -150 150 -150h2900c82 0 150 68 150 150v900c0 82 -68 150 -150 150h-2900z" />
    <glyph glyph-name="314" unicode="&#xe13a;" horiz-adv-x="12200" 
d="M5200 12800h19h31v-3c418 -26 750 -372 750 -797v-1300c0 -276 -224 -500 -500 -500c-55 0 -100 -45 -100 -100s45 -100 100 -100c276 0 500 -224 500 -500v-2400c0 -386 -314 -700 -700 -700h-600c-55 0 -100 -45 -100 -100s45 -100 100 -100h600
c386 0 700 -314 700 -700v-1800c0 -276 -224 -500 -500 -500c-55 0 -100 -45 -100 -100s45 -100 100 -100c276 0 500 -224 500 -500v-900c0 -867 -690 -1570 -1550 -1597v-3h-31h-19c-459 0 -871 80 -1247 206c251 26 447 236 447 494v1000c0 55 -45 100 -100 100
s-100 -45 -100 -100v-1000c0 -165 -135 -300 -300 -300h-3c-206 0 -407 34 -597 97c-547 314 -993 765 -1350 1309c252 25 450 235 450 494v400c0 165 135 300 300 300s300 -135 300 -300c0 -55 45 -100 100 -100s100 45 100 100c0 276 -224 500 -500 500
s-500 -224 -500 -500v-400c0 -165 -135 -300 -300 -300h-72c-306 514 -537 1101 -703 1731c55 156 201 269 375 269c55 0 100 45 100 100s-45 100 -100 100c-246 0 -465 149 -556 375c-98 593 -144 1209 -144 1825c0 427 38 853 109 1272c128 204 347 328 591 328
c55 0 100 45 100 100s-45 100 -100 100c-199 0 -363 148 -394 338c670 2302 2432 4262 4894 4262zM9047 206c-376 -126 -788 -206 -1247 -206h-19h-31v3c-860 27 -1550 730 -1550 1597v900c0 276 224 500 500 500c55 0 100 45 100 100s-45 100 -100 100
c-276 0 -500 224 -500 500v1800c0 386 314 700 700 700h600c55 0 100 45 100 100s-45 100 -100 100h-600c-386 0 -700 314 -700 700v2400c0 276 224 500 500 500c55 0 100 45 100 100s-45 100 -100 100c-276 0 -500 224 -500 500v1300c0 425 332 771 750 797v3h32h18
c2462 0 4224 -1960 4894 -4262c-31 -190 -195 -338 -394 -338c-55 0 -100 -45 -100 -100s45 -100 100 -100c244 0 463 -124 591 -328c71 -419 109 -846 109 -1272c0 -616 -46 -1232 -144 -1825c-91 -226 -310 -375 -556 -375c-55 0 -100 -45 -100 -100s45 -100 100 -100
c174 0 320 -113 375 -269c-166 -630 -397 -1217 -703 -1731h-72c-165 0 -300 135 -300 300v400c0 276 -224 500 -500 500s-500 -224 -500 -500c0 -55 45 -100 100 -100s100 45 100 100c0 165 135 300 300 300s300 -135 300 -300v-400c0 -259 198 -469 450 -494
c-357 -544 -803 -995 -1350 -1309c-190 -63 -391 -97 -597 -97h-3c-165 0 -300 135 -300 300v1000c0 55 -45 100 -100 100s-100 -45 -100 -100v-1000c0 -258 196 -468 447 -494zM4900 12200c-276 0 -500 -224 -500 -500c0 -55 45 -100 100 -100s100 45 100 100
c0 165 135 300 300 300s300 -135 300 -300c0 -55 45 -100 100 -100s100 45 100 100c0 276 -224 500 -500 500zM7300 12200c-276 0 -500 -224 -500 -500c0 -55 45 -100 100 -100s100 45 100 100c0 165 135 300 300 300s300 -135 300 -300c0 -55 45 -100 100 -100
s100 45 100 100c0 276 -224 500 -500 500zM5300 11200c-55 0 -100 -45 -100 -100c0 -165 -135 -300 -300 -300c-386 0 -700 -314 -700 -700s314 -700 700 -700c165 0 300 -135 300 -300c0 -55 45 -100 100 -100s100 45 100 100c0 276 -224 500 -500 500s-500 224 -500 500
s224 500 500 500s500 224 500 500c0 55 -45 100 -100 100zM6900 11200c-55 0 -100 -45 -100 -100c0 -276 224 -500 500 -500s500 -224 500 -500s-224 -500 -500 -500s-500 -224 -500 -500c0 -55 45 -100 100 -100s100 45 100 100c0 165 135 300 300 300
c386 0 700 314 700 700s-314 700 -700 700c-165 0 -300 135 -300 300c0 55 -45 100 -100 100zM2700 10400c-276 0 -500 -224 -500 -500c0 -55 45 -100 100 -100s100 45 100 100c0 165 135 300 300 300s300 -135 300 -300c0 -55 45 -100 100 -100s100 45 100 100
c0 276 -224 500 -500 500zM9500 10400c-276 0 -500 -224 -500 -500c0 -55 45 -100 100 -100s100 45 100 100c0 165 135 300 300 300s300 -135 300 -300c0 -55 45 -100 100 -100s100 45 100 100c0 276 -224 500 -500 500zM1100 8600c-55 0 -100 -45 -100 -100
s45 -100 100 -100c165 0 300 -135 300 -300s-135 -300 -300 -300c-55 0 -100 -45 -100 -100s45 -100 100 -100c276 0 500 224 500 500s-224 500 -500 500zM4900 8600c-55 0 -100 -45 -100 -100s45 -100 100 -100c165 0 300 -135 300 -300c0 -55 45 -100 100 -100
s100 45 100 100c0 276 -224 500 -500 500zM7300 8600c-276 0 -500 -224 -500 -500c0 -55 45 -100 100 -100s100 45 100 100c0 165 135 300 300 300c55 0 100 45 100 100s-45 100 -100 100zM11100 8600c-276 0 -500 -224 -500 -500s224 -500 500 -500c55 0 100 45 100 100
s-45 100 -100 100c-165 0 -300 135 -300 300s135 300 300 300c55 0 100 45 100 100s-45 100 -100 100zM2300 8200c-55 0 -100 -45 -100 -100c0 -606 -494 -1100 -1100 -1100c-55 0 -100 -45 -100 -100s45 -100 100 -100c717 0 1300 583 1300 1300c0 55 -45 100 -100 100z
M9900 8200c-55 0 -100 -45 -100 -100c0 -717 583 -1300 1300 -1300c55 0 100 45 100 100s-45 100 -100 100c-606 0 -1100 494 -1100 1100c0 55 -45 100 -100 100zM5300 7600c-55 0 -100 -45 -100 -100c0 -165 -135 -300 -300 -300h-800c-496 0 -900 -404 -900 -900
s404 -900 900 -900c55 0 100 45 100 100s-45 100 -100 100c-386 0 -700 314 -700 700s314 700 700 700h800c276 0 500 224 500 500c0 55 -45 100 -100 100zM6900 7600c-55 0 -100 -45 -100 -100c0 -276 224 -500 500 -500h800c386 0 700 -314 700 -700s-314 -700 -700 -700
c-55 0 -100 -45 -100 -100s45 -100 100 -100c496 0 900 404 900 900s-404 900 -900 900h-800c-165 0 -300 135 -300 300c0 55 -45 100 -100 100zM1300 5800c-55 0 -100 -45 -100 -100s45 -100 100 -100c165 0 300 -135 300 -300c0 -55 45 -100 100 -100s100 45 100 100
c0 276 -224 500 -500 500zM10900 5800c-276 0 -500 -224 -500 -500c0 -55 45 -100 100 -100s100 45 100 100c0 165 135 300 300 300c55 0 100 45 100 100s-45 100 -100 100zM4900 5600c-55 0 -100 -45 -100 -100s45 -100 100 -100c165 0 300 -135 300 -300
s-135 -300 -300 -300h-300c-55 0 -100 -45 -100 -100s45 -100 100 -100h300c276 0 500 224 500 500s-224 500 -500 500zM7300 5600c-276 0 -500 -224 -500 -500s224 -500 500 -500h300c55 0 100 45 100 100s-45 100 -100 100h-300c-165 0 -300 135 -300 300s135 300 300 300
c55 0 100 45 100 100s-45 100 -100 100zM1100 5400c-276 0 -500 -224 -500 -500s224 -500 500 -500c165 0 300 -135 300 -300s-135 -300 -300 -300c-55 0 -100 -45 -100 -100s45 -100 100 -100c276 0 500 224 500 500s-224 500 -500 500c-165 0 -300 135 -300 300
s135 300 300 300c55 0 100 45 100 100s-45 100 -100 100zM11100 5400c-55 0 -100 -45 -100 -100s45 -100 100 -100c165 0 300 -135 300 -300s-135 -300 -300 -300c-276 0 -500 -224 -500 -500s224 -500 500 -500c55 0 100 45 100 100s-45 100 -100 100
c-165 0 -300 135 -300 300s135 300 300 300c276 0 500 224 500 500s-224 500 -500 500zM3800 4800c-276 0 -500 -224 -500 -500s224 -500 500 -500c55 0 100 45 100 100s-45 100 -100 100c-165 0 -300 135 -300 300s135 300 300 300h300c55 0 100 45 100 100
s-45 100 -100 100h-300zM8100 4800c-55 0 -100 -45 -100 -100s45 -100 100 -100h300c165 0 300 -135 300 -300s-135 -300 -300 -300c-55 0 -100 -45 -100 -100s45 -100 100 -100c276 0 500 224 500 500s-224 500 -500 500h-300zM5300 3800c-386 0 -700 -314 -700 -700v-1000
c0 -165 -135 -300 -300 -300s-300 135 -300 300c0 276 -224 500 -500 500c-55 0 -100 -45 -100 -100s45 -100 100 -100c165 0 300 -135 300 -300c0 -276 224 -500 500 -500s500 224 500 500v1000c0 276 224 500 500 500c55 0 100 45 100 100s-45 100 -100 100zM6900 3800
c-55 0 -100 -45 -100 -100s45 -100 100 -100c276 0 500 -224 500 -500v-1000c0 -276 224 -500 500 -500s500 224 500 500c0 165 135 300 300 300c55 0 100 45 100 100s-45 100 -100 100c-276 0 -500 -224 -500 -500c0 -165 -135 -300 -300 -300s-300 135 -300 300v1000
c0 386 -314 700 -700 700z" />
    <glyph glyph-name="315" unicode="&#xe13b;" 
d="M5100 11800h2400c274 0 500 -226 500 -500v-700h4650c83 0 150 -67 150 -150v-3350c0 -165 -135 -300 -300 -300h-5100v100c0 165 -135 300 -300 300h-1600c-165 0 -300 -135 -300 -300v-100h-4900c-165 0 -300 135 -300 300v3350c0 83 67 150 150 150h4450v700
c0 274 226 500 500 500zM5100 11400c-58 0 -100 -42 -100 -100v-700h2600v700c0 58 -42 100 -100 100h-2400zM5500 7000h1600c55 0 100 -45 100 -100v-400c0 -55 -45 -100 -100 -100h-1600c-55 0 -100 45 -100 100v400c0 55 45 100 100 100zM0 6703
c84 -64 187 -103 300 -103h4900v-100c0 -165 135 -300 300 -300h1600c165 0 300 135 300 300v100h5100c113 0 216 39 300 103v-5553c0 -83 -67 -150 -150 -150h-12500c-83 0 -150 67 -150 150v5553z" />
    <glyph glyph-name="316" unicode="&#xe13c;" horiz-adv-x="8800" 
d="M7000 9600c0 1323 -1061 2000 -2400 2000c-1328 0 -2391 -1063 -2391 -2391c0 -896 494 -1839 779 -3009h1812v-600h-1694c192 -1254 -90 -2732 -1512 -4400h7206v-1200h-8800v1250l175 175c1822 1822 1964 2952 1716 4175h-1291v600h1134c-282 903 -725 1857 -725 3009
c0 1976 1615 3591 3591 3591c1964 0 3600 -1221 3600 -3200h-1200z" />
    <glyph glyph-name="317" unicode="&#xe13d;" 
d="M150 12800h12500c83 0 150 -67 150 -150v-8650h-400v7400h-12000v-7400h-400v8650c0 83 67 150 150 150zM800 12200l-412 -200l412 -200v400zM1200 12200v-400l400 200zM2200 12200c-110 0 -200 -90 -200 -200s90 -200 200 -200h10009c110 0 200 90 200 200
s-90 200 -200 200h-10009zM600 11200h1000v-200h-800v-800h-200v1000zM11200 11200h1000v-1000h-200v800h-800v200zM6000 8900h800v-4200h850c83 0 117 -56 75 -128l-1250 -2144c-42 -72 -108 -72 -150 0l-1250 2144c-42 72 -8 128 75 128h850v4200zM600 1000h200v-800h800
v-200h-1000v1000zM12000 1000h200v-1000h-1000v200h800v800z" />
    <glyph glyph-name="318" unicode="&#xe13e;" 
d="M6400 12800c2335 0 4379 -1251 5497 -3119h-5497c-1549 0 -2853 -1070 -3194 -2525l-1828 3210c1172 1482 2986 2434 5022 2434zM828 9553l2710 -4753c580 -1036 1675 -1681 2862 -1681c308 0 617 46 913 131l-1894 -3175c-3069 472 -5419 3124 -5419 6325
c0 1146 300 2223 828 3153zM6400 4000c-1234 0 -2400 988 -2400 2400c0 1323 1077 2400 2400 2400s2400 -1077 2400 -2400c0 -1387 -1153 -2400 -2400 -2400zM8634 8800h3700c300 -741 466 -1551 466 -2400c0 -3535 -2865 -6400 -6400 -6400l2744 4603
c351 534 537 1155 537 1797c0 923 -384 1785 -1047 2400z" />
    <glyph glyph-name="319" unicode="&#xe13f;" 
d="M1938 10500c1091 1225 2678 2000 4443 2000c1384 0 2657 -479 3669 -1275c138 -91 271 -184 397 -284c-40 316 -66 462 -66 462s528 -257 875 -803c-23 126 -34 197 -34 197s11 -10 34 -31c-9 10 -16 21 -25 31c349 -239 734 -886 925 -1413
c239 -661 292 -1376 219 -2062c140 473 244 790 244 790c74 -172 110 -378 137 -565c185 -1209 -237 -2413 -640 -3128c-118 -209 -287 -409 -463 -622c-152 -291 -326 -568 -522 -828c536 301 1026 638 1125 1181c-69 -442 -134 -913 -765 -1534
c-1150 -1132 -2214 -1122 -2694 -1563c316 3 1152 112 1481 497c-964 -1314 -3753 -1156 -3753 -1156s52 -121 297 -163c-784 -30 -1859 316 -1859 316s196 -181 512 -272c-2876 648 -4021 2377 -4456 3122c-571 977 -745 1876 -785 2609c-82 -375 -115 -654 -118 -690
c-1 13 1 27 0 40c-3 -23 -7 -40 -7 -47c-70 1085 46 1817 197 2291c-200 -364 -300 -681 -300 -681c2 13 4 25 6 37c-9 -26 -12 -40 -12 -40c176 992 398 1586 609 1946c53 96 133 220 232 357c1 31 -7 65 -7 100c-40 568 41 1024 194 1428c1 2 3 4 3 3c4 0 6 -47 7 -66
c17 131 98 252 140 338c4 4 -5 -90 -3 -97c13 32 26 67 44 125c104 326 263 419 263 419c8 -213 90 -511 187 -685c16 -28 15 54 31 28c73 -118 156 -222 238 -312zM6381 12100c-1629 0 -3096 -706 -4112 -1828c394 113 857 138 1400 3c47 78 120 147 181 203
c4 -31 3 -47 3 -75c56 130 274 300 365 347c-4 -28 -5 -42 -3 -59c194 137 420 263 613 306c30 6 -88 -53 -125 -91c91 47 126 67 303 104s382 -20 344 -41c-29 -16 -185 -90 -210 -113c-21 -20 91 13 69 -6c-367 -300 -605 -671 -722 -1097c25 -62 70 -139 110 -200
c106 -149 281 -305 550 -303c267 2 466 0 615 -9c193 4 296 -18 416 -47c146 -54 94 -310 50 -419c-55 -133 -134 -197 -234 -303c-171 -180 -935 -535 -1126 -766c-1 -4 -2 -6 -3 -6c14 -27 26 -51 35 -78c-42 35 -77 17 -50 -22c86 -125 39 -467 15 -581
c-68 38 -129 67 -187 90h-6c153 -93 162 -148 162 -234c-48 77 -348 197 -466 237c-6 -2 -12 -1 -18 -3c26 -30 68 -93 68 -93s-55 27 -143 59c-164 -91 -253 -284 -253 -428c0 -180 -39 -472 574 -835c11 -7 -93 20 -84 13c56 -39 282 -141 406 -187c43 -26 -131 20 -90 0
s80 -41 119 -57c646 -256 1040 113 1500 228c601 151 1039 -131 1221 -340s28 -443 -206 -391c-235 52 -498 -170 -940 -472c-437 -299 -1192 -424 -1904 -250c174 -165 478 -488 710 -562c266 -84 636 -51 790 -219c-154 91 -355 43 -490 28c925 -463 1620 -333 1784 -309
c400 60 580 191 650 240c-17 -98 -81 -198 -159 -222c101 -70 400 329 569 466c7 6 -87 -119 -78 -112c52 39 92 79 122 121c75 106 190 147 190 147c21 -52 12 -134 3 -212c0 -1 19 -17 53 -19c126 -21 412 167 688 772c364 799 384 1359 384 1359
c46 -100 124 -265 150 -484c119 477 293 861 97 2656c182 -161 438 -621 578 -915c97 1827 -818 3033 -1365 3440c364 -28 907 -365 1222 -687c-165 347 -389 718 -785 1125c-932 710 -2091 1131 -3350 1131z" />
    <glyph glyph-name="320" unicode="&#xe140;" 
d="M10491 12600c1143 -6 3054 -472 1587 -3791c459 -826 722 -1775 722 -2787v-3c0 -251 -16 -498 -47 -741h-8228c0 -1162 856 -2080 1906 -2359c1131 -300 2411 153 3016 1175h3022c-642 -1806 -2208 -3237 -4128 -3678c-1284 -295 -2657 -141 -3838 443
c-712 -369 -5818 -2835 -4181 3013c160 481 270 636 365 831c961 1984 2226 3725 3807 5138c-604 -261 -1613 -916 -3053 -2532c375 1637 1372 2880 2656 3650c983 589 2134 867 3278 803c732 342 1526 614 2384 782c56 11 351 58 732 56zM11725 11681
c-745 503 -2062 -39 -2597 -297c1170 -454 2153 -1279 2807 -2331c682 1768 285 2294 -210 2628zM9713 6853c-57 1631 -1735 2703 -3319 2275c-1033 -279 -1843 -1188 -1881 -2275h5200zM1616 4131c-890 -1836 -819 -2845 -416 -3259c814 -835 2343 -120 2919 197
c-1159 687 -2054 1770 -2503 3062z" />
    <glyph glyph-name="321" unicode="&#xe141;" 
d="M6400 12800c3535 0 6400 -2865 6400 -6400s-2865 -6400 -6400 -6400s-6400 2865 -6400 6400s2865 6400 6400 6400zM6400 12400c-3308 0 -6000 -2692 -6000 -6000s2692 -6000 6000 -6000s6000 2692 6000 6000s-2692 6000 -6000 6000zM6328 12053h144v-1156h-144v1156z
M5916 12031l59 -587l-141 -13l-59 588zM6884 12031l141 -12l-59 -588l-141 13zM5366 11956l225 -1131l-138 -28l-225 1131zM7434 11956l138 -28l-225 -1131l-138 28zM4828 11828l169 -562l-135 -41l-171 563zM7972 11828l137 -40l-171 -563l-135 41zM4303 11650l441 -1069
l-132 -53l-440 1066zM8497 11650l131 -56l-440 -1066l-132 53zM3797 11419l278 -522l-125 -66l-275 519zM9003 11419l122 -69l-275 -519l-125 66zM3319 11137l640 -959l-115 -78l-644 959zM9481 11137l119 -78l-644 -959l-115 78zM2869 10812l375 -453l-110 -90l-375 456z
M9931 10812l110 -87l-375 -456l-110 90zM2453 10447l819 -819l-100 -100l-819 819zM10378 10397l-3219 -4703l-4737 -3291l3287 4669zM2075 10040l456 -375l-90 -109l-453 375zM10725 10040l87 -109l-453 -375l-90 109zM1740 9600l960 -644l-78 -116l-960 641zM11059 9600
l78 -119l-959 -641l-78 116zM1450 9125l519 -275l-66 -125l-522 278zM11350 9125l68 -122l-521 -278l-66 125zM1206 8628l1066 -441l-54 -131l-1068 441zM11593 8628l57 -131l-1069 -441l-53 131zM1012 8109l563 -172l-41 -134l-562 169zM11787 8109l41 -137l-563 -169
l-40 134zM872 7572l1131 -225l-28 -138l-1132 225zM11928 7572l28 -138l-1131 -225l-29 138zM781 7025l587 -60l-12 -140l-588 59zM12018 7025l13 -141l-588 -59l-12 140zM746 6472h1157v-144h-1157v144zM10896 6472h1157v-144h-1157v144zM1356 5975l12 -141l-587 -59
l-13 140zM11443 5975l588 -60l-13 -140l-587 59zM1975 5590l28 -137l-1132 -225l-28 137zM10825 5590l1131 -225l-28 -137l-1132 225zM1534 4996l41 -134l-563 -172l-40 138zM11265 4996l563 -168l-41 -138l-562 172zM2218 4743l54 -131l-1066 -440l-56 131zM10581 4743
l1069 -440l-57 -131l-1065 440zM1903 4075l65 -125l-518 -275l-69 121zM10897 4075l522 -279l-69 -121l-519 275zM2622 3959l78 -116l-960 -643l-78 118zM10178 3959l960 -641l-79 -118l-959 643zM9628 3272l819 -819l-100 -100l-819 819zM2441 3243l90 -109l-456 -375
l-87 109zM10360 3243l453 -375l-88 -109l-456 375zM3844 2700l116 -78l-641 -960l-119 78zM8956 2700l644 -960l-118 -78l-641 960zM3135 2531l109 -91l-375 -453l-109 87zM9666 2531l375 -457l-109 -87l-376 453zM4613 2271l131 -53l-440 -1068l-132 56zM8188 2271
l440 -1065l-131 -56l-441 1068zM5453 2003l138 -29l-225 -1131l-138 28zM7347 2003l225 -1132l-137 -28l-225 1131zM3675 1449l275 519l125 -66l-278 -521zM8850 1968l275 -519l-122 -68l-278 521zM6328 1903h144v-1157h-144v1157zM4863 1574l134 -40l-169 -563l-137 41z
M7938 1574l172 -562l-138 -41l-169 563zM5835 1368l140 -12l-59 -588l-141 13zM6966 1368l59 -587l-140 -13l-60 588z" />
    <glyph glyph-name="322" unicode="&#xe142;" 
d="M150 11800h12500c83 0 150 -67 150 -150v-10500c0 -83 -67 -150 -150 -150h-12500c-83 0 -150 67 -150 150v10500c0 83 67 150 150 150zM800 11200l-412 -200l412 -200v400zM1200 11200v-400l400 200zM2200 11200c-110 0 -200 -90 -200 -200s90 -200 200 -200h10009
c110 0 200 90 200 200s-90 200 -200 200h-10009zM400 10400v-9000h12000v9000h-12000zM600 10200h1000v-200h-800v-800h-200v1000zM11200 10200h1000v-1000h-200v800h-800v200zM600 2600h200v-800h800v-200h-1000v1000zM12000 2600h200v-1000h-1000v200h800v800z" />
    <glyph glyph-name="323" unicode="&#xe143;" 
d="M150 11800h12500c83 0 150 -67 150 -150v-10500c0 -83 -67 -150 -150 -150h-12500c-83 0 -150 67 -150 150v10500c0 83 67 150 150 150zM800 11200l-412 -200l412 -200v400zM1200 11200v-400l400 200zM2200 11200c-110 0 -200 -90 -200 -200s90 -200 200 -200h10009
c110 0 200 90 200 200s-90 200 -200 200h-10009zM400 10400v-9000h12000v9000h-12000z" />
    <glyph glyph-name="324" unicode="&#xe144;" horiz-adv-x="12600" 
d="M12163 12416c87 67 253 168 337 84c55 -55 19 -204 -84 -334l-5628 -7132c-103 -130 -309 -294 -457 -368l-1025 -513c-260 442 -681 792 -1206 953l406 1210c52 157 201 367 332 468zM2188 3425c193 672 862 1137 1631 928c708 -192 1128 -920 934 -1622
c-549 -2014 -2804 -3097 -4753 -2228c1056 661 1850 1698 2188 2922z" />
    <glyph glyph-name="325" unicode="&#xe145;" horiz-adv-x="11700" 
d="M1609 10701c0 53 46 101 105 101c17 0 43 -8 57 -18l1200 -800c24 -16 43 -53 43 -82v-2v-1128l1191 -397c-458 910 -52 2118 803 2606c-166 456 -387 887 -703 1203c-253 253 -554 416 -931 416h-10c-55 0 -100 45 -100 100c0 50 41 100 95 100h5h5h5
c1013 0 1530 -968 1812 -1731c196 83 413 131 644 131c222 0 428 -43 616 -119c283 757 801 1719 1809 1719c55 0 100 -45 100 -100s-45 -100 -100 -100c-909 0 -1372 -909 -1628 -1603c863 -476 1251 -1693 787 -2625l1200 400v1128v2c0 29 20 66 44 82l1200 800
c16 11 39 17 62 17c55 0 100 -45 100 -100c0 -31 -22 -69 -49 -85l-1157 -772v-1144c0 -39 -30 -82 -68 -94l-1335 -444c320 -206 599 -487 822 -853l850 285c8 4 17 7 29 7c32 0 71 -23 87 -51l1181 -1969l1166 -387c46 -8 83 -52 83 -99c0 -55 -45 -100 -100 -100
c-13 0 -34 5 -46 11l-1200 400c-19 7 -43 27 -53 44l-1159 1931l-738 -247c304 -578 481 -1339 481 -2306c0 -51 -2 -100 -3 -150l1544 -688c33 -15 59 -55 59 -91c0 -10 -3 -25 -6 -34l-1178 -3337l356 -356c16 -16 30 -49 30 -72c0 -56 -45 -102 -101 -102
c-23 0 -56 14 -72 30l-400 400c-16 16 -29 47 -29 70c0 10 3 26 7 36l1169 3313l-1385 615c-90 -1931 -885 -3543 -1972 -4175c-445 368 -819 1001 -819 1713v5000c0 110 -90 200 -200 200s-200 -90 -200 -200v-5000c0 -712 -373 -1345 -818 -1713
c-1087 632 -1882 2244 -1972 4175l-1385 -615l1169 -3313c4 -10 7 -26 7 -36c0 -23 -13 -54 -29 -70l-400 -400c-16 -16 -49 -30 -72 -30c-56 0 -101 46 -101 102c0 23 13 56 29 72l357 356l-1178 3337c-3 9 -6 24 -6 34c0 36 26 76 59 91l1544 688c-1 50 -4 99 -4 150
c0 967 178 1728 482 2306l-738 247l-1159 -1931c-10 -17 -34 -37 -53 -44l-1200 -400c-12 -6 -33 -11 -46 -11c-55 0 -100 45 -100 100c0 47 37 91 83 99l1166 387l1181 1969c14 25 49 50 80 50c10 0 27 -2 36 -6l850 -285c223 365 499 647 819 853l-1332 444
c-38 12 -69 55 -69 94v1144l-1156 772c-27 16 -49 54 -49 85zM3514 5000c-55 0 -100 -45 -100 -100c0 -1144 281 -2256 772 -3047c19 -29 55 -47 88 -47c80 0 124 89 84 153c-472 760 -744 1833 -744 2941c0 55 -45 100 -100 100zM8114 5000c-55 0 -100 -45 -100 -100
c0 -1108 -272 -2181 -744 -2941c-40 -64 5 -153 85 -153c34 0 68 17 87 47c491 791 772 1903 772 3047c0 55 -45 100 -100 100z" />
    <glyph glyph-name="326" unicode="&#xe146;" horiz-adv-x="9000" 
d="M0 12800h9000v-200h-9000v200zM200 12400h8600v-200c-221 0 -400 -179 -400 -400v-10600h-3400v1400h-1000v-1400h-3400v10600c0 221 -179 400 -400 400v200zM1000 11200v-200h1800v200h-1800zM3600 11200v-200h1800v200h-1800zM6200 11200v-200h1800v200h-1800z
M1200 10800v-1400h1400v1400h-1400zM3800 10800v-1400h1400v1400h-1400zM6400 10800v-1400h1400v1400h-1400zM1000 8600v-200h1800v200h-1800zM3600 8600v-200h1800v200h-1800zM6200 8600v-200h1800v200h-1800zM1200 8200v-1400h1400v1400h-1400zM3800 8200v-1400h1400v1400
h-1400zM6400 8200v-1400h1400v1400h-1400zM1000 6000v-200h1800v200h-1800zM3600 6000v-200h1800v200h-1800zM6200 6000v-200h1800v200h-1800zM1200 5600v-1400h1400v1400h-1400zM3800 5600v-1400h1400v1400h-1400zM6400 5600v-1400h1400v1400h-1400zM400 1000h8200v-200
h-8200v200zM200 600h8600v-200h-8600v200zM0 200h9000v-200h-9000v200z" />
    <glyph glyph-name="327" unicode="&#xe147;" 
d="M12000 12500h650c83 0 150 -67 150 -150v-8900c0 -83 -67 -150 -150 -150h-650v9200zM11800 12488v-9175c-61 9 -124 21 -169 37l-6853 2416c-212 55 -421 -37 -562 -175l512 -960c39 -73 5 -131 -78 -131h-328l1640 -4106c20 -51 -7 -94 -62 -94h-1400
c-55 0 -118 43 -138 94l-2203 5506h-1609c-83 0 -150 67 -150 150v250h-250c-83 0 -150 67 -150 150v2900c0 83 67 150 150 150h250v250c0 83 67 150 150 150h3700c83 0 213 22 291 50l7090 2500c45 16 108 29 169 38z" />
    <glyph glyph-name="328" unicode="&#xe148;" horiz-adv-x="10000" 
d="M300 12800h9400c166 0 300 -134 300 -300v-12200c0 -166 -134 -300 -300 -300h-9400c-166 0 -300 134 -300 300v12200c0 166 134 300 300 300zM1250 11600c-28 0 -50 -22 -50 -50v-2300c0 -28 22 -50 50 -50h7500c28 0 50 22 50 50v2300c0 28 -22 50 -50 50h-7500z
M1250 8400c-28 0 -50 -22 -50 -50v-100c0 -28 22 -50 50 -50h7500c28 0 50 22 50 50v100c0 28 -22 50 -50 50h-7500zM1250 7600c-28 0 -50 -22 -50 -50v-300c0 -28 22 -50 50 -50h1500c28 0 50 22 50 50v300c0 28 -22 50 -50 50h-1500zM3250 7600c-28 0 -50 -22 -50 -50
v-300c0 -28 22 -50 50 -50h1500c28 0 50 22 50 50v300c0 28 -22 50 -50 50h-1500zM5250 7600c-28 0 -50 -22 -50 -50v-300c0 -28 22 -50 50 -50h1500c28 0 50 22 50 50v300c0 28 -22 50 -50 50h-1500zM7250 7600c-28 0 -50 -22 -50 -50v-300c0 -28 22 -50 50 -50h1500
c28 0 50 22 50 50v300c0 28 -22 50 -50 50h-1500zM1250 6800c-28 0 -50 -22 -50 -50v-1500c0 -28 22 -50 50 -50h1500c28 0 50 22 50 50v1500c0 28 -22 50 -50 50h-1500zM3250 6800c-28 0 -50 -22 -50 -50v-1500c0 -28 22 -50 50 -50h1500c28 0 50 22 50 50v1500
c0 28 -22 50 -50 50h-1500zM5250 6800c-28 0 -50 -22 -50 -50v-1500c0 -28 22 -50 50 -50h1500c28 0 50 22 50 50v1500c0 28 -22 50 -50 50h-1500zM7250 6800c-28 0 -50 -22 -50 -50v-1500c0 -28 22 -50 50 -50h1500c28 0 50 22 50 50v1500c0 28 -22 50 -50 50h-1500z
M1250 4800c-28 0 -50 -22 -50 -50v-1500c0 -28 22 -50 50 -50h1500c28 0 50 22 50 50v1500c0 28 -22 50 -50 50h-1500zM3250 4800c-28 0 -50 -22 -50 -50v-1500c0 -28 22 -50 50 -50h1500c28 0 50 22 50 50v1500c0 28 -22 50 -50 50h-1500zM5250 4800c-28 0 -50 -22 -50 -50
v-1500c0 -28 22 -50 50 -50h1500c28 0 50 22 50 50v1500c0 28 -22 50 -50 50h-1500zM7250 4800c-28 0 -50 -22 -50 -50v-3500c0 -28 22 -50 50 -50h1500c28 0 50 22 50 50v3500c0 28 -22 50 -50 50h-1500zM1250 2800c-28 0 -50 -22 -50 -50v-1500c0 -28 22 -50 50 -50h1500
c28 0 50 22 50 50v1500c0 28 -22 50 -50 50h-1500zM3250 2800c-28 0 -50 -22 -50 -50v-1500c0 -28 22 -50 50 -50h1500c28 0 50 22 50 50v1500c0 28 -22 50 -50 50h-1500zM5250 2800c-28 0 -50 -22 -50 -50v-1500c0 -28 22 -50 50 -50h1500c28 0 50 22 50 50v1500
c0 28 -22 50 -50 50h-1500z" />
    <glyph glyph-name="329" unicode="&#xe149;" horiz-adv-x="12600" 
d="M150 12400h12300c83 0 150 -67 150 -150v-2250h-12600v2250c0 83 67 150 150 150zM0 9800h12600v-9100c0 -166 -134 -300 -300 -300h-12000c-166 0 -300 134 -300 300v9100zM4000 9000v-1400h1400v1400h-1400zM5600 9000v-1400h1400v1400h-1400zM7200 9000v-1400h1400
v1400h-1400zM8800 9000v-1400h1400v1400h-1400zM10400 9000v-1400h1400v1400h-1400zM800 7400v-1400h1400v1400h-1400zM2400 7400v-1400h1400v1400h-1400zM4000 7400v-1400h1400v1400h-1400zM5600 7400v-1400h1400v1400h-1400zM7200 7400v-1400h1400v1400h-1400zM8800 7400
v-1400h1400v1400h-1400zM10400 7400v-1400h1400v1400h-1400zM800 5800v-1400h1400v1400h-1400zM2400 5800v-1400h1400v1400h-1400zM4000 5800v-1400h1400v1400h-1400zM5600 5800v-1400h1400v1400h-1400zM7200 5800v-1400h1400v1400h-1400zM8800 5800v-1400h1400v1400h-1400z
M10400 5800v-1400h1400v1400h-1400zM800 4200v-1400h1400v1400h-1400zM2400 4200v-1400h1400v1400h-1400zM4000 4200v-1400h1400v1400h-1400zM5600 4200v-1400h1400v1400h-1400zM7200 4200v-1400h1400v1400h-1400zM8800 4200v-1400h1400v1400h-1400zM10400 4200v-1400h1400
v1400h-1400zM800 2600v-1400h1400v1400h-1400zM2400 2600v-1400h1400v1400h-1400zM4000 2600v-1400h1400v1400h-1400zM5600 2600v-1400h1400v1400h-1400z" />
    <glyph glyph-name="330" unicode="&#xe14a;" 
d="M1800 10400h800v-200h200v-400h200v400h1600v-400h200v250c0 83 67 150 150 150h7700c83 0 150 -67 150 -150v-2050h-4600c-308 129 -645 200 -1000 200s-692 -71 -1000 -200h-6200v1650c0 83 67 150 150 150h1450v400h200v200zM9625 9800c-14 0 -25 -11 -25 -25v-1350
c0 -14 11 -25 25 -25h1950c14 0 25 11 25 25v1350c0 14 -11 25 -25 25h-1950zM7625 9600c-14 0 -25 -11 -25 -25v-950c0 -14 11 -25 25 -25h1350c14 0 25 11 25 25v950c0 14 -11 25 -25 25h-1350zM3425 9200c-14 0 -25 -11 -25 -25v-350c0 -14 11 -25 25 -25h750
c14 0 25 11 25 25v350c0 14 -11 25 -25 25h-750zM7200 8000c1326 0 2400 -1074 2400 -2400s-1074 -2400 -2400 -2400s-2400 1074 -2400 2400s1074 2400 2400 2400zM0 7800h5816c-619 -390 -1062 -1036 -1182 -1788c-109 115 -263 188 -434 188c-331 0 -600 -269 -600 -600
s269 -600 600 -600c170 0 325 74 434 188c198 -1239 1271 -2188 2566 -2188c1436 0 2600 1164 2600 2600c0 927 -486 1740 -1216 2200h4216v-5000h-12800v5000zM7200 7800c-1213 0 -2200 -987 -2200 -2200s987 -2200 2200 -2200s2200 987 2200 2200s-987 2200 -2200 2200z
M7200 7600c1105 0 2000 -895 2000 -2000s-895 -2000 -2000 -2000s-2000 895 -2000 2000s895 2000 2000 2000zM7200 7400c-992 0 -1800 -808 -1800 -1800c0 -55 45 -100 100 -100s100 45 100 100c0 882 718 1600 1600 1600c55 0 100 45 100 100s-45 100 -100 100zM4200 6000
c221 0 400 -179 400 -400s-179 -400 -400 -400s-400 179 -400 400s179 400 400 400zM300 2400c-130 0 -239 84 -281 200h12762c-42 -116 -151 -200 -281 -200h-12200z" />
    <glyph glyph-name="331" unicode="&#xe14b;" 
d="M7200 12300h1400v-200h500c166 0 384 -105 488 -234l1224 -1532c104 -129 322 -234 488 -234h1200c166 0 300 -134 300 -300v-8500h-12800v6400c0 1326 1074 2400 2400 2400h1900c166 0 384 105 488 234l1224 1532c104 129 322 234 488 234h700v200zM2000 8900
c-221 0 -400 -179 -400 -400s179 -400 400 -400s400 179 400 400s-179 400 -400 400zM3900 8700c-55 0 -100 -45 -100 -100v-300c0 -138 -84 -344 -181 -441l-178 -178c-97 -97 -303 -181 -441 -181h-2400c-55 0 -100 -45 -100 -100s45 -100 100 -100h2400
c76 0 160 16 244 44c-28 -84 -44 -168 -44 -244v-900c0 -55 45 -100 100 -100s100 45 100 100v900c0 138 84 344 181 441l178 178c135 135 241 389 241 581v300c0 55 -45 100 -100 100zM7800 8300c-1654 0 -3000 -1346 -3000 -3000s1346 -3000 3000 -3000
c1512 0 2765 1124 2969 2581c109 -112 262 -181 431 -181c331 0 600 269 600 600s-269 600 -600 600c-169 0 -322 -69 -431 -181c-204 1457 -1457 2581 -2969 2581zM7800 7900c1436 0 2600 -1164 2600 -2600s-1164 -2600 -2600 -2600s-2600 1164 -2600 2600
s1164 2600 2600 2600zM7800 7666c-1304 0 -2366 -1062 -2366 -2366s1062 -2366 2366 -2366s2366 1062 2366 2366s-1062 2366 -2366 2366zM7800 7503c1214 0 2203 -989 2203 -2203s-989 -2203 -2203 -2203s-2203 989 -2203 2203s989 2203 2203 2203zM7800 7200
c-1048 0 -1900 -852 -1900 -1900c0 -55 45 -100 100 -100s100 45 100 100c0 937 763 1700 1700 1700c55 0 100 45 100 100s-45 100 -100 100zM11200 5700c221 0 400 -179 400 -400s-179 -400 -400 -400s-400 179 -400 400s179 400 400 400zM0 1100h12800v-300
c0 -166 -134 -300 -300 -300h-12200c-166 0 -300 134 -300 300v300z" />
    <glyph glyph-name="332" unicode="&#xe14c;" horiz-adv-x="12700" 
d="M84 10300h12500c80 0 109 -49 59 -119l-6218 -7762c-50 -70 -131 -70 -191 -10l-6209 7772c-50 70 -21 119 59 119z" />
    <glyph glyph-name="333" unicode="&#xe14d;" horiz-adv-x="8000" 
d="M7816 12609c55 39 119 38 119 -59v-12500c0 -80 -49 -109 -119 -59l-7762 6218c-70 50 -70 131 -10 191z" />
    <glyph glyph-name="334" unicode="&#xe14e;" horiz-adv-x="8000" 
d="M0 12550c0 91 58 102 119 59l7762 -6218c70 -50 70 -131 10 -191l-7772 -6209c-70 -50 -119 -21 -119 59v12500z" />
    <glyph glyph-name="335" unicode="&#xe14f;" horiz-adv-x="12700" 
d="M6243 10281c49 69 131 70 191 10l6209 -7772c50 -70 21 -119 -59 -119h-12500c-80 0 -109 49 -59 119z" />
    <glyph glyph-name="336" unicode="&#xe150;" 
d="M8400 8900h2400c1100 0 2000 -900 2000 -2000s-900 -2000 -2000 -2000h-8400v-1000l-2400 1400l2400 1400v-1000h8400c668 0 1200 532 1200 1200s-532 1200 -1200 1200h-2400v800z" />
    <glyph glyph-name="337" unicode="&#xe151;" 
d="M300 11600h1125c145 0 248 -76 288 -215l284 -985h10503c166 0 273 -132 238 -294l-1075 -5012c-35 -162 -197 -294 -363 -294h-7709c-1 -47 -12 -92 -35 -147l-690 -1656c-176 -6 -342 -52 -488 -131l806 1934c-3 1 -2 18 0 22l-1834 6378h-769
c-42 -116 -151 -200 -281 -200c-166 0 -300 134 -300 300s134 300 300 300zM2900 2800c497 0 900 -403 900 -900s-403 -900 -900 -900s-900 403 -900 900s403 900 900 900zM10300 2800c497 0 900 -403 900 -900s-403 -900 -900 -900s-900 403 -900 900s403 900 900 900z
M3750 2600h5703c-96 -116 -167 -252 -209 -400h-5288c-42 148 -110 284 -206 400z" />
    <glyph glyph-name="338" unicode="&#xe152;" 
d="M150 10800h7700c83 0 150 -67 150 -150v-1450h-3400v-4200h-3250c-83 0 -193 -49 -247 -112l-1006 -1176c-54 -63 -97 -45 -97 38v6900c0 83 67 150 150 150zM4950 9000h7700c83 0 150 -67 150 -150v-6900c0 -83 -43 -101 -97 -38l-1006 1176c-54 63 -164 112 -247 112
h-6500c-83 0 -150 67 -150 150v5500c0 83 67 150 150 150z" />
    </font>
</defs>
</svg>
