<?xml version="1.0" standalone="no"?>
<!DOCTYPE svg PUBLIC "-//W3C//DTD SVG 1.1//EN" "http://www.w3.org/Graphics/SVG/1.1/DTD/svg11.dtd" >
<!--
2015-6-24: Created.
-->
<svg xmlns="http://www.w3.org/2000/svg">
<metadata>
Created by FontForge 20120731 at Wed Jun 24 00:32:42 2015
 By P.J. Onori
Created by P.J. Onori with FontForge 2.0 (http://fontforge.sf.net)
</metadata>
<defs>
<font id="iconic-md" horiz-adv-x="3200" >
  <font-face 
    font-family="Iconic"
    font-weight="400"
    font-stretch="normal"
    units-per-em="3200"
    panose-1="2 0 5 3 0 0 0 0 0 0"
    ascent="3200"
    descent="0"
    bbox="-0.625173 -106 3213 3203"
    underline-thickness="50"
    underline-position="-100"
    unicode-range="U+E000-E26F"
  />
    <missing-glyph />
    <glyph glyph-name="0" unicode="&#xe000;" 
d="M1100 3100h2100v-3100h-2100v300h1800v2500h-1800v300zM1500 1950c0 30 21 39 41 19l518 -388c20 -20 20 -42 0 -62l-518 -388c-20 -20 -41 -11 -41 19v250h-1500v300h1500v250z" />
    <glyph glyph-name="1" unicode="&#xe001;" 
d="M1074 3100h2100v-3100h-2100v300h1800v2500h-1800v300zM534 1969c16 16 40 15 40 -19v-250h1500v-300h-1500v-250c0 -30 -20 -39 -40 -19l-519 388c-20 20 -20 42 0 62z" />
    <glyph glyph-name="2" unicode="&#xe002;" 
d="M1434 2700c800 0 1450 -650 1450 -1450v-150h250c30 0 39 -21 19 -41l-537 -718c-20 -20 -43 -20 -63 0l-537 718c-20 20 -12 41 18 41h250v150c0 640 -510 1150 -1150 1150c-562 0 -1028 -414 -1134 -944c109 699 711 1244 1434 1244z" />
    <glyph glyph-name="3" unicode="&#xe003;" 
d="M1729 2700c723 0 1317 -545 1425 -1244c-97 530 -563 944 -1125 944c-640 0 -1150 -510 -1150 -1150v-150h250c30 0 39 -21 19 -41l-537 -718c-20 -20 -43 -20 -63 0l-537 718c-20 20 -11 41 19 41h250v150c0 800 649 1450 1449 1450z" />
    <glyph glyph-name="4" unicode="&#xe004;" 
d="M0 2900h3200v-300h-3200v300zM400 2100h2400v-300h-2400v300zM0 1300h3200v-300h-3200v300zM400 500h2400v-300h-2400v300z" />
    <glyph glyph-name="5" unicode="&#xe005;" 
d="M0 2900h3200v-300h-3200v300zM0 2100h2400v-300h-2400v300zM0 1300h3200v-300h-3200v300zM0 500h2400v-300h-2400v300z" />
    <glyph glyph-name="6" unicode="&#xe006;" 
d="M0 2900h3200v-300h-3200v300zM800 2100h2400v-300h-2400v300zM0 1300h3200v-300h-3200v300zM800 500h2400v-300h-2400v300z" />
    <glyph glyph-name="7" unicode="&#xe007;" 
d="M1600 3200c75 0 150 -6 222 -16l-856 -1484l-557 966c293 328 717 534 1191 534zM1928 3166c527 -109 955 -478 1153 -966h-1712zM341 2584l856 -1484h-1116c-52 157 -81 325 -81 500c0 371 129 713 341 984zM2003 2100h1116c52 -157 81 -325 81 -500
c0 -371 -129 -713 -341 -984zM2234 1500l557 -966c-293 -328 -717 -534 -1191 -534c-75 0 -150 6 -222 16zM119 1000h1712l-559 -966c-527 109 -955 478 -1153 966z" />
    <glyph glyph-name="8" unicode="&#xe008;" horiz-adv-x="900" 
d="M285 3100h300v-2309h250c30 0 41 -21 31 -41c-138 -270 -276 -538 -412 -809c-10 -20 -28 -20 -38 0c-136 271 -274 539 -412 809c-10 20 1 41 31 41h250v2309z" />
    <glyph glyph-name="9" unicode="&#xe009;" horiz-adv-x="900" 
d="M285 3100h300v-2325l259 116c30 10 42 -2 32 -32l-291 -647v-12h-6l-113 -250c-20 -30 -40 -30 -50 0l-112 250h-19v40l-281 619c-10 30 1 42 31 32l250 -110v2319z" />
    <glyph glyph-name="10" unicode="&#xe00a;" horiz-adv-x="1300" 
d="M473 3100h300v-2009h459c30 0 41 -21 31 -41l-600 -1109c-30 -20 -49 -20 -59 0l-600 1109c-10 20 -2 41 28 41h441v2009z" />
    <glyph glyph-name="11" unicode="&#xe00b;" horiz-adv-x="1300" 
d="M485 3100h300v-2031l450 212c30 10 39 -2 19 -22l-469 -1006v-53h-25l-116 -250c0 -30 -18 -30 -28 0l-115 250h-16v31l-481 1028c-10 30 2 42 22 22l459 -215v2034z" />
    <glyph glyph-name="12" unicode="&#xe00c;" horiz-adv-x="1500" 
d="M580 3100h300v-2509h540c30 0 30 -22 10 -32l-681 -628c0 -10 -40 -10 -60 0l-678 628c-20 20 -11 32 9 32h560v2509z" />
    <glyph glyph-name="13" unicode="&#xe00d;" horiz-adv-x="1300" 
d="M479 3100h300v-2300h450c30 0 39 -21 19 -41l-587 -818c-20 -20 -43 -20 -63 0l-587 818c-20 20 -11 41 19 41h450z" />
    <glyph glyph-name="14" unicode="&#xe00e;" horiz-adv-x="1100" 
d="M380 3100h300v-2709h340c30 0 30 -22 10 -32l-481 -428c0 -10 -40 -10 -60 0l-478 428c-20 20 -11 32 9 32h360v2709z" />
    <glyph glyph-name="15" unicode="&#xe00f;" horiz-adv-x="900" 
d="M279 3100h300v-2600h250c30 0 39 -21 19 -41l-387 -518c-20 -20 -43 -20 -63 0l-387 518c-20 20 -11 41 19 41h250z" />
    <glyph glyph-name="16" unicode="&#xe010;" horiz-adv-x="2400" 
d="M2142 2744h1l212 -213l-1631 -1631l175 -178c21 -21 14 -43 -7 -50l-862 -285c-21 -7 -35 8 -28 29c94 288 187 576 281 865c7 21 29 27 50 6l178 -175z" />
    <glyph glyph-name="17" unicode="&#xe011;" horiz-adv-x="2400" 
d="M2140 2744l213 -213l-1644 -1644l265 -103c28 -14 28 -26 0 -40l-662 -253l-10 -10l-3 3l-259 -97c-35 -7 -48 10 -34 38l96 256l-12 13l28 28l241 634c14 28 29 28 43 0l97 -253z" />
    <glyph glyph-name="18" unicode="&#xe012;" horiz-adv-x="2400" 
d="M2143 2744l212 -213l-1422 -1422l325 -325c21 -21 15 -43 -6 -50l-1209 -359c-35 7 -48 20 -41 41l359 1209c7 21 29 30 50 9l310 -312z" />
    <glyph glyph-name="19" unicode="&#xe013;" horiz-adv-x="2400" 
d="M702 1306l1438 1438l213 -213l-1435 -1434l466 -172c28 -14 28 -28 0 -28l-1047 -381l-35 -35l-15 16l-260 -94c-21 -21 -35 -6 -21 22l93 259l-9 10l22 22l387 1065c14 28 28 28 28 0z" />
    <glyph glyph-name="20" unicode="&#xe014;" horiz-adv-x="2500" 
d="M2200 2744l212 -213l-1775 -1775l382 -381c21 -21 8 -35 -13 -28l-928 34c-7 -7 -33 23 -40 44l-38 925c0 28 14 30 28 16l397 -397z" />
    <glyph glyph-name="21" unicode="&#xe015;" horiz-adv-x="2400" 
d="M2150 2744l213 -213l-1625 -1625l315 -319c21 -21 16 -43 -12 -43l-997 -163c-28 0 -44 16 -44 44l162 997c0 28 23 33 44 12l319 -315z" />
    <glyph glyph-name="22" unicode="&#xe016;" horiz-adv-x="2500" 
d="M284 828l1916 1916l212 -213l-1915 -1916l241 -240c21 -21 5 -35 -16 -28l-644 34c-7 -7 -33 23 -40 44l-38 644c0 28 14 26 28 12z" />
    <glyph glyph-name="23" unicode="&#xe017;" horiz-adv-x="2400" 
d="M2150 2744l213 -213l-1838 -1837l175 -178c21 -21 16 -41 -12 -41l-644 -94c-28 0 -44 16 -44 44l94 644c0 28 19 33 40 12l178 -175z" />
    <glyph glyph-name="24" unicode="&#xe018;" horiz-adv-x="2400" 
d="M2156 2744l213 -213l-1835 -1834l844 137l-281 -284l-1097 -175l178 1097l281 281l-134 -841z" />
    <glyph glyph-name="25" unicode="&#xe019;" horiz-adv-x="2400" 
d="M316 903c614 614 1226 1227 1840 1841l213 -213l-1844 -1843l1137 146l-284 -284l-1378 -175l178 1378l281 285z" />
    <glyph glyph-name="26" unicode="&#xe01a;" horiz-adv-x="2600" 
d="M2334 2844l213 -213l-1938 -1937l985 -147l-250 -250l-1166 178l-178 1166l250 247l147 -982z" />
    <glyph glyph-name="27" unicode="&#xe01b;" horiz-adv-x="2400" 
d="M316 903c614 614 1226 1227 1840 1841l213 -213l-1844 -1843l1137 146l-284 -284l-1378 -175l178 1378l281 285z" />
    <glyph glyph-name="28" unicode="&#xe01c;" horiz-adv-x="2500" 
d="M2262 2744l213 -213l-1966 -1965l763 -85l-213 -212l-953 106l-106 953l212 213l85 -763z" />
    <glyph glyph-name="29" unicode="&#xe01d;" horiz-adv-x="2400" 
d="M2156 2744l213 -213l-1900 -1900l734 25l-250 -247l-953 -34l34 953l250 250l-28 -734z" />
    <glyph glyph-name="30" unicode="&#xe01e;" horiz-adv-x="1400" 
d="M500 3200h300v-2594l500 694v-400l-650 -900l-650 900v400l500 -694v2594z" />
    <glyph glyph-name="31" unicode="&#xe01f;" horiz-adv-x="1800" 
d="M700 3200h300v-2606l700 906v-400l-850 -1100l-850 1100v400l700 -906v2606z" />
    <glyph glyph-name="32" unicode="&#xe020;" horiz-adv-x="2000" 
d="M800 3200h300v-2741l800 591v-350l-950 -700l-950 700v350l800 -591v2741z" />
    <glyph glyph-name="33" unicode="&#xe021;" horiz-adv-x="1800" 
d="M700 3200h300v-2606l700 906v-400l-850 -1100l-850 1100v400l700 -906v2606z" />
    <glyph glyph-name="34" unicode="&#xe022;" horiz-adv-x="1600" 
d="M600 3200h300v-2781l600 481v-300l-750 -600l-750 600v300l600 -481v2781z" />
    <glyph glyph-name="35" unicode="&#xe023;" horiz-adv-x="1400" 
d="M500 3200h300v-2688l500 538v-350l-650 -700l-650 700v350l500 -538v2688z" />
    <glyph glyph-name="36" unicode="&#xe024;" horiz-adv-x="2400" 
d="M212 2731l1632 -1631l178 175c21 21 43 15 50 -6l284 -863c7 -21 -7 -35 -28 -28c-288 94 -576 187 -865 281c-21 7 -28 29 -7 50l175 178l-1631 1632z" />
    <glyph glyph-name="37" unicode="&#xe025;" horiz-adv-x="2400" 
d="M212 2731l1644 -1643l103 265c14 28 27 28 41 0l253 -662l9 -10l-3 -3l97 -259c7 -35 -9 -49 -37 -35l-257 97l-12 -12l-28 28l-634 240c-28 14 -28 30 0 44l253 97l-1641 1641z" />
    <glyph glyph-name="38" unicode="&#xe026;" horiz-adv-x="2400" 
d="M212 2731l1422 -1422l325 325c21 21 43 15 50 -6l360 -1209c-7 -35 -20 -48 -41 -41l-1209 359c-21 7 -31 29 -10 50l313 310l-1422 1422z" />
    <glyph glyph-name="39" unicode="&#xe027;" horiz-adv-x="2400" 
d="M212 2731l1435 -1434l172 465c14 28 28 28 28 0l381 -1046l34 -35l-15 -15l94 -260c21 -21 6 -36 -22 -22l-260 94l-9 -9l-22 22l-1066 387c-28 14 -28 28 0 28l476 175l-1438 1438z" />
    <glyph glyph-name="40" unicode="&#xe028;" horiz-adv-x="2400" 
d="M212 2731l1776 -1775l381 381c21 21 35 9 28 -12l-35 -928c7 -7 -22 -34 -43 -41l-925 -37c-28 0 -30 14 -16 28l397 397l-1775 1775z" />
    <glyph glyph-name="41" unicode="&#xe029;" horiz-adv-x="2400" 
d="M212 2731l1626 -1625l318 316c21 21 44 15 44 -13l163 -997c0 -28 -16 -43 -44 -43l-997 162c-28 0 -34 23 -13 44l316 319l-1625 1625z" />
    <glyph glyph-name="42" unicode="&#xe02a;" horiz-adv-x="2400" 
d="M212 2731h1l1915 -1915l241 240c21 21 35 6 28 -15l-34 -644c7 -7 -23 -34 -44 -41l-644 -37c-28 0 -27 14 -13 28l254 256l-1916 1916z" />
    <glyph glyph-name="43" unicode="&#xe02b;" horiz-adv-x="2400" 
d="M0 2519c71 71 142 141 213 212l1837 -1837l178 175c21 21 41 15 41 -13l94 -644c0 -28 -16 -43 -44 -43l-644 93c-28 0 -34 20 -13 41l176 178z" />
    <glyph glyph-name="44" unicode="&#xe02c;" horiz-adv-x="2400" 
d="M212 2731h1l1834 -1834l-137 844l284 -282l175 -1097l-1097 178l-281 282l840 -135l-1831 1832z" />
    <glyph glyph-name="45" unicode="&#xe02d;" horiz-adv-x="2400" 
d="M212 2731l1844 -1843l-147 1137l285 -284l175 -1379l-1378 179l-285 281l1135 -144l-1841 1841z" />
    <glyph glyph-name="46" unicode="&#xe02e;" horiz-adv-x="2600" 
d="M0 2619l212 212l1938 -1937l147 984l250 -250l-178 -1166l-1166 -178l-247 250l982 147z" />
    <glyph glyph-name="47" unicode="&#xe02f;" horiz-adv-x="2400" 
d="M212 2731l1844 -1843l-147 1137l285 -284l175 -1379l-1378 179l-285 281l1135 -144l-1841 1841z" />
    <glyph glyph-name="48" unicode="&#xe030;" horiz-adv-x="2500" 
d="M212 2831l1966 -1965l84 762l213 -212l-106 -954l-953 -106l-213 213l763 84l-1966 1966z" />
    <glyph glyph-name="49" unicode="&#xe031;" horiz-adv-x="2400" 
d="M0 2519l212 212l1900 -1900l-25 735l247 -250l35 -954l-953 35l-250 250l734 -28z" />
    <glyph glyph-name="50" unicode="&#xe032;" 
d="M840 1984c14 0 25 -12 25 -34v-250h2309v-300h-2309v-250c0 -30 -21 -41 -41 -31c-270 138 -538 276 -809 412c-20 10 -20 28 0 38c271 136 539 274 809 412c5 2 11 3 16 3z" />
    <glyph glyph-name="51" unicode="&#xe033;" 
d="M951 1984c15 0 20 -12 12 -34l-109 -250h2319v-300h-2325l115 -259c10 -30 -1 -42 -31 -32l-647 291h-13v6l-250 113c-30 20 -30 40 0 50l250 112v19h41l619 281c8 2 14 3 19 3z" />
    <glyph glyph-name="52" unicode="&#xe034;" 
d="M1140 2175c14 0 25 -12 25 -34v-441h2009v-300h-2009v-459c0 -30 -21 -42 -41 -32l-1109 600c-20 30 -20 50 0 60l1109 600c5 3 11 6 16 6z" />
    <glyph glyph-name="53" unicode="&#xe035;" 
d="M1332 2181c19 6 47 4 22 -21l-216 -460h2035v-300h-2032l213 -450c10 -30 -2 -39 -22 -19l-1006 469h-54v25l-250 116c-30 0 -30 18 0 28l250 115v16h32z" />
    <glyph glyph-name="54" unicode="&#xe036;" 
d="M636 2269c13 13 31 22 31 -10v-559h2509v-300h-2509v-541c0 -30 -21 -29 -31 -9l-628 681c-10 0 -10 40 0 60z" />
    <glyph glyph-name="55" unicode="&#xe037;" 
d="M834 2169c16 16 40 15 40 -19v-450h2300v-300h-2300v-450c0 -30 -20 -39 -40 -19l-819 588c-20 20 -20 42 0 62z" />
    <glyph glyph-name="56" unicode="&#xe038;" 
d="M436 2069c13 13 31 22 31 -10v-359h2709v-300h-2709v-341c0 -30 -21 -29 -31 -9l-428 481c-10 0 -10 40 0 60z" />
    <glyph glyph-name="57" unicode="&#xe039;" 
d="M534 1969c16 16 40 15 40 -19v-250h2600v-300h-2600v-250c0 -30 -20 -39 -40 -19l-519 388c-20 20 -20 42 0 62z" />
    <glyph glyph-name="58" unicode="&#xe03a;" 
d="M900 2200h400l-694 -500h2594v-300h-2594l694 -500h-400l-900 650z" />
    <glyph glyph-name="59" unicode="&#xe03b;" 
d="M1100 2400h400l-906 -700h2606v-300h-2606l906 -700h-400l-1100 850z" />
    <glyph glyph-name="60" unicode="&#xe03c;" 
d="M700 2500h350l-591 -800h2741v-300h-2741l591 -800h-350l-700 950z" />
    <glyph glyph-name="61" unicode="&#xe03d;" 
d="M1100 2400h400l-906 -700h2606v-300h-2606l906 -700h-400l-1100 850z" />
    <glyph glyph-name="62" unicode="&#xe03e;" 
d="M600 2300h300l-481 -600h2781v-300h-2781l481 -600h-300l-600 750z" />
    <glyph glyph-name="63" unicode="&#xe03f;" 
d="M700 2200h350l-538 -500h2688v-300h-2688l538 -500h-350l-700 650z" />
    <glyph glyph-name="64" unicode="&#xe040;" 
d="M840 2784c14 0 25 -12 25 -34v-250h2309v-2100h-300v1800h-2009v-250c0 -30 -21 -41 -41 -31l-809 412c-20 10 -20 28 0 38l809 412c5 2 11 3 16 3z" />
    <glyph glyph-name="65" unicode="&#xe041;" 
d="M942 2784c15 0 21 -12 13 -34l-113 -250h2332v-2100h-300v1800h-2032l122 -250c10 -30 -1 -41 -31 -31l-909 412c-30 10 -30 28 -10 38l910 412c8 2 13 3 18 3z" />
    <glyph glyph-name="66" unicode="&#xe042;" 
d="M534 2769c16 16 40 15 40 -19v-250h2600v-2100h-300v1800h-2300v-250c0 -30 -20 -39 -40 -19l-519 388c-20 20 -20 42 0 62z" />
    <glyph glyph-name="67" unicode="&#xe043;" 
d="M700 2900h350l-538 -500h2688v-2100h-300v1800h-2388l538 -500h-350l-700 650z" />
    <glyph glyph-name="68" unicode="&#xe044;" 
d="M2334 2784c5 0 11 -1 16 -3l809 -412c20 -10 20 -28 0 -38l-809 -412c-20 -10 -41 1 -41 31v250h-2009v-1800h-300v2100h2309v250c0 22 11 34 25 34z" />
    <glyph glyph-name="69" unicode="&#xe045;" 
d="M2231 2784c5 0 11 -1 19 -3l910 -412c20 -10 20 -28 -10 -38l-909 -412c-30 -10 -42 1 -32 31l122 250h-2031v-1800h-300v2100h2331l-112 250c-8 22 -3 34 12 34z" />
    <glyph glyph-name="70" unicode="&#xe046;" 
d="M2600 2750c0 30 21 39 41 19l518 -388c20 -20 20 -42 0 -62l-518 -388c-20 -20 -41 -11 -41 19v250h-2300v-1800h-300v2100h2600v250z" />
    <glyph glyph-name="71" unicode="&#xe047;" 
d="M2150 2900h350l700 -650l-700 -650h-350l538 500h-2388v-1800h-300v2100h2688z" />
    <glyph glyph-name="72" unicode="&#xe048;" horiz-adv-x="2400" 
d="M0 3100h2100v-2309h250c30 0 41 -21 31 -41l-412 -809c-10 -20 -28 -20 -38 0l-412 809c-10 20 1 41 31 41h250v2009h-1800v300z" />
    <glyph glyph-name="73" unicode="&#xe049;" horiz-adv-x="2400" 
d="M0 3100h2100v-2331l250 112c30 10 41 -1 31 -31l-412 -910c-10 -20 -28 -20 -38 10l-412 909c-10 30 1 42 31 32l250 -122v2031h-1800v300z" />
    <glyph glyph-name="74" unicode="&#xe04a;" horiz-adv-x="2400" 
d="M0 3100h2100v-2600h250c30 0 39 -21 19 -41l-388 -518c-20 -20 -42 -20 -62 0l-388 518c-20 20 -11 41 19 41h250v2300h-1800v300z" />
    <glyph glyph-name="75" unicode="&#xe04b;" horiz-adv-x="2600" 
d="M0 3200h2100v-2688l500 538v-350l-650 -700l-650 700v350l500 -538v2388h-1800v300z" />
    <glyph glyph-name="76" unicode="&#xe04c;" horiz-adv-x="2400" 
d="M1950 3175c8 0 14 -6 19 -16l412 -809c10 -20 -1 -41 -31 -41h-250v-2309h-2100v300h1800v2009h-250c-30 0 -41 21 -31 41l412 809c5 10 11 16 19 16z" />
    <glyph glyph-name="77" unicode="&#xe04d;" horiz-adv-x="2400" 
d="M1931 3150c9 27 25 35 38 9l412 -909c10 -30 -1 -41 -31 -31l-250 112v-2331h-2100v300h1800v2031l-250 -122c-30 -10 -41 2 -31 32z" />
    <glyph glyph-name="78" unicode="&#xe04e;" horiz-adv-x="2400" 
d="M1950 3175c10 0 21 -6 31 -16l388 -518c20 -20 11 -41 -19 -41h-250v-2600h-2100v300h1800v2300h-250c-30 0 -39 21 -19 41l388 518c10 10 21 16 31 16z" />
    <glyph glyph-name="79" unicode="&#xe04f;" horiz-adv-x="2600" 
d="M1950 3200l650 -700v-350l-500 538v-2688h-2100v300h1800v2388l-500 -538v350z" />
    <glyph glyph-name="80" unicode="&#xe050;" horiz-adv-x="2400" 
d="M285 3100h2100v-300h-1800v-2009h250c30 0 41 -21 31 -41l-412 -809c-10 -20 -28 -20 -38 0l-412 809c-10 20 1 41 31 41h250v2309z" />
    <glyph glyph-name="81" unicode="&#xe051;" horiz-adv-x="2400" 
d="M285 3100h2100v-300h-1800v-2031l250 122c30 10 41 -2 31 -32l-412 -909c-10 -30 -28 -30 -38 -10l-412 910c-10 30 1 41 31 31l250 -112v2331z" />
    <glyph glyph-name="82" unicode="&#xe052;" horiz-adv-x="2400" 
d="M279 3100h2100v-300h-1800v-2300h250c30 0 39 -21 19 -41l-387 -518c-20 -20 -43 -20 -63 0l-387 518c-20 20 -11 41 19 41h250z" />
    <glyph glyph-name="83" unicode="&#xe053;" horiz-adv-x="2600" 
d="M500 3200h2100v-300h-1800v-2388l500 538v-350l-650 -700l-650 700v350l500 -538v2688z" />
    <glyph glyph-name="84" unicode="&#xe054;" horiz-adv-x="2400" 
d="M435 3175c8 0 14 -6 19 -16l412 -809c10 -20 -1 -41 -31 -41h-250v-2009h1800v-300h-2100v2309h-250c-30 0 -41 21 -31 41l412 809c5 10 11 16 19 16z" />
    <glyph glyph-name="85" unicode="&#xe055;" horiz-adv-x="2400" 
d="M416 3159c13 26 29 18 38 -9l412 -909c10 -30 -1 -42 -31 -32l-250 122v-2031h1800v-300h-2100v2331l-250 -112c-30 -10 -41 1 -31 31z" />
    <glyph glyph-name="86" unicode="&#xe056;" horiz-adv-x="2400" 
d="M430 3175c10 0 21 -6 31 -16l387 -518c20 -20 12 -41 -18 -41h-250v-2300h1800v-300h-2100v2600h-250c-30 0 -39 21 -19 41l387 518c10 10 22 16 32 16z" />
    <glyph glyph-name="87" unicode="&#xe057;" horiz-adv-x="2600" 
d="M650 3200l650 -700v-350l-500 538v-2388h1800v-300h-2100v2688l-500 -538v350z" />
    <glyph glyph-name="88" unicode="&#xe058;" 
d="M1124 2759c16 16 41 16 41 -18v-341h2009v-2000h-600v1400h-1409v-359c0 -20 -21 -32 -41 -22l-1109 650c-20 20 -20 40 0 40z" />
    <glyph glyph-name="89" unicode="&#xe059;" 
d="M1324 2769c19 12 45 19 32 -19l-150 -350h1968v-2000h-600v1400h-1375l157 -360c10 -20 -12 -32 -32 -22c-436 222 -871 444 -1309 663c-20 10 -20 28 0 28l559 281v10h19z" />
    <glyph glyph-name="90" unicode="&#xe05a;" 
d="M834 2769c16 16 40 15 40 -19v-350h2300v-2000h-600v1400h-1700v-350c0 -30 -20 -39 -40 -19l-819 638c-20 20 -20 42 0 62z" />
    <glyph glyph-name="91" unicode="&#xe05b;" 
d="M900 2900h600l-600 -600h2300v-2000h-600v1400h-1700l600 -600h-600l-900 900z" />
    <glyph glyph-name="92" unicode="&#xe05c;" 
d="M2009 2741c0 30 21 38 41 18l1109 -650c20 0 20 -20 0 -40l-1109 -650c-20 -10 -41 2 -41 22v359h-1409v-1400h-600v2000h2009v341z" />
    <glyph glyph-name="93" unicode="&#xe05d;" 
d="M1819 2778c5 4 16 1 31 -9l731 -369h19v-9l559 -282c20 0 20 -18 0 -28c-438 -219 -873 -440 -1309 -662c-20 -10 -41 2 -31 22l156 359h-1375v-1400h-600v2000h1969l-150 350c-5 15 -5 24 0 28z" />
    <glyph glyph-name="94" unicode="&#xe05e;" 
d="M2300 2750c0 30 21 39 41 19l818 -638c20 -20 20 -42 0 -62l-818 -638c-20 -20 -41 -11 -41 19v350h-1700v-1400h-600v2000h2300v350z" />
    <glyph glyph-name="95" unicode="&#xe05f;" 
d="M1700 2900h600l900 -900l-900 -900h-600l600 600h-1700v-1400h-600v2000h2300z" />
    <glyph glyph-name="96" unicode="&#xe060;" horiz-adv-x="2400" 
d="M0 3100h2000v-2009h341c30 0 38 -21 18 -41l-650 -1109c0 -20 -20 -20 -40 0l-650 1109c-10 20 2 41 22 41h359v1409h-1400v600z" />
    <glyph glyph-name="97" unicode="&#xe061;" horiz-adv-x="2400" 
d="M0 3100h2000v-1969l350 150c30 10 39 -1 19 -31l-369 -731v-19h-9l-282 -559c0 -20 -18 -20 -28 0c-219 438 -440 873 -662 1309c-10 20 2 41 22 31l359 -156v1375h-1400v600z" />
    <glyph glyph-name="98" unicode="&#xe062;" horiz-adv-x="2400" 
d="M0 3100h2000v-2300h350c30 0 39 -21 19 -41l-638 -818c-20 -20 -42 -20 -62 0l-638 818c-20 20 -11 41 19 41h350v1700h-1400v600z" />
    <glyph glyph-name="99" unicode="&#xe063;" horiz-adv-x="2600" 
d="M0 3200h2000v-2300l600 600v-600l-900 -900l-900 900v600l600 -600v1700h-1400v600z" />
    <glyph glyph-name="100" unicode="&#xe064;" horiz-adv-x="2400" 
d="M1697 3175c8 0 12 -6 12 -16l650 -1109c20 -20 12 -41 -18 -41h-341v-2009h-2000v600h1400v1409h-359c-20 0 -32 21 -22 41l650 1109c10 10 20 16 28 16z" />
    <glyph glyph-name="101" unicode="&#xe065;" horiz-adv-x="2400" 
d="M1700 3175c6 0 9 -5 9 -15l282 -560h9v-19l369 -731c20 -30 11 -41 -19 -31l-350 150v-1969h-2000v600h1400v1375l-359 -156c-20 -10 -32 11 -22 31c222 436 443 871 662 1309c5 10 13 16 19 16z" />
    <glyph glyph-name="102" unicode="&#xe066;" horiz-adv-x="2400" 
d="M1700 3175c10 0 21 -6 31 -16l638 -818c20 -20 11 -41 -19 -41h-350v-2300h-2000v600h1400v1700h-350c-30 0 -39 21 -19 41l638 818c10 10 21 16 31 16z" />
    <glyph glyph-name="103" unicode="&#xe067;" horiz-adv-x="2600" 
d="M1700 3200l900 -900v-600l-600 600v-2300h-2000v600h1400v1700l-600 -600v600z" />
    <glyph glyph-name="104" unicode="&#xe068;" horiz-adv-x="2400" 
d="M370 3100h2000v-600h-1400v-1409h359c20 0 32 -21 22 -41l-650 -1109c-20 -20 -40 -20 -40 0l-650 1109c-20 20 -11 41 19 41h340v2009z" />
    <glyph glyph-name="105" unicode="&#xe069;" horiz-adv-x="2400" 
d="M380 1131v1969h2000v-600h-1400v-1375l359 156c20 10 32 -11 22 -31c-222 -436 -444 -872 -663 -1310c-10 -20 -28 -20 -28 0l-281 560h-9v19l-369 731c-20 30 -11 41 19 31z" />
    <glyph glyph-name="106" unicode="&#xe06a;" horiz-adv-x="2400" 
d="M379 3100h2000v-600h-1400v-1700h350c30 0 39 -21 19 -41l-637 -818c-20 -20 -43 -20 -63 0l-637 818c-20 20 -11 41 19 41h350z" />
    <glyph glyph-name="107" unicode="&#xe06b;" horiz-adv-x="2600" 
d="M600 3200h2000v-600h-1400v-1700l600 600v-600l-900 -900l-900 900v600l600 -600v2300z" />
    <glyph glyph-name="108" unicode="&#xe06c;" horiz-adv-x="2400" 
d="M673 3175c8 0 18 -6 28 -16l650 -1109c10 -20 -1 -41 -21 -41h-360v-1409h1400v-600h-2000v2009h-340c-30 0 -39 21 -19 41l650 1109c0 10 4 16 12 16z" />
    <glyph glyph-name="109" unicode="&#xe06d;" horiz-adv-x="2400" 
d="M680 3175h-1c6 0 14 -6 19 -16c219 -438 441 -873 663 -1309c10 -20 -2 -42 -22 -32l-359 157v-1375h1400v-600h-2000v1969l-350 -150c-30 -10 -39 1 -19 31l369 731v19h9l281 559c0 10 4 16 10 16z" />
    <glyph glyph-name="110" unicode="&#xe06e;" horiz-adv-x="2400" 
d="M680 3175c10 0 21 -6 31 -16l637 -818c20 -20 12 -41 -18 -41h-350v-1700h1400v-600h-2000v2300h-350c-30 0 -39 21 -19 41l637 818c10 10 22 16 32 16z" />
    <glyph glyph-name="111" unicode="&#xe06f;" horiz-adv-x="2600" 
d="M900 3200l900 -900v-600l-600 600v-1700h1400v-600h-2000v2300l-600 -600v600z" />
    <glyph glyph-name="112" unicode="&#xe070;" 
d="M2574 2700h600v-2000h-2009v-340c0 -30 -21 -39 -41 -19l-1109 650c-20 0 -20 20 0 40l1109 650c20 10 41 -2 41 -22v-359h1409v1400z" />
    <glyph glyph-name="113" unicode="&#xe071;" 
d="M2574 2700h1h600v-2000h-1969l150 -350c10 -30 -2 -39 -32 -19l-731 369h-19v9l-559 282c-20 0 -20 18 0 28c438 219 873 440 1309 662c20 10 42 -2 32 -22l-157 -359h1375v1400z" />
    <glyph glyph-name="114" unicode="&#xe072;" 
d="M2574 2700h600v-2000h-2300v-350c0 -30 -20 -39 -40 -19l-819 638c-20 20 -20 42 0 62l819 638c20 20 40 11 40 -19v-350h1700v1400z" />
    <glyph glyph-name="115" unicode="&#xe073;" 
d="M2600 2900h600v-2000h-2300l600 -600h-600l-900 900l900 900h600l-600 -600h1700v1400z" />
    <glyph glyph-name="116" unicode="&#xe074;" 
d="M0 2700h600v-1400h1409v359c0 20 21 32 41 22l1109 -650c20 -20 20 -40 0 -40l-1109 -650c-20 -20 -41 -12 -41 18v341h-2009v2000z" />
    <glyph glyph-name="117" unicode="&#xe075;" 
d="M0 2700h600v-1400h1375l-156 360c-10 20 11 31 31 21c436 -222 872 -443 1310 -662c20 -10 20 -28 0 -28l-560 -282v-9h-19l-731 -369c-30 -20 -41 -11 -31 19l150 350h-1969v2000z" />
    <glyph glyph-name="118" unicode="&#xe076;" 
d="M0 2700h600v-1400h1700v350c0 30 21 39 41 19l818 -638c20 -20 20 -42 0 -62l-818 -638c-20 -20 -41 -11 -41 19v350h-2300v2000z" />
    <glyph glyph-name="119" unicode="&#xe077;" 
d="M0 2900h600v-1400h1700l-600 600h600l900 -900l-900 -900h-600l600 600h-2300v2000z" />
    <glyph glyph-name="120" unicode="&#xe078;" 
d="M2874 2700h300v-2100h-2309v-250c0 -30 -21 -41 -41 -31l-809 412c-20 10 -20 28 0 38l809 412c20 10 41 -1 41 -31v-250h2009v1800z" />
    <glyph glyph-name="121" unicode="&#xe079;" 
d="M2874 2700h300v-2100h-2332l113 -250c10 -30 -1 -41 -31 -31l-910 412c-20 10 -20 28 10 38l909 412c30 10 41 -1 31 -31l-122 -250h2032v1800z" />
    <glyph glyph-name="122" unicode="&#xe07a;" 
d="M2874 2700h300v-2100h-2600v-250c0 -30 -20 -39 -40 -19l-519 388c-20 20 -20 42 0 62l519 388c20 20 40 11 40 -19v-250h2300v1800z" />
    <glyph glyph-name="123" unicode="&#xe07b;" 
d="M2900 2900h300v-2100h-2688l538 -500h-350l-700 650l700 650h350l-538 -500h2388v1800z" />
    <glyph glyph-name="124" unicode="&#xe07c;" 
d="M0 2700h300v-1800h2009v250c0 30 21 41 41 31l809 -412c20 -10 20 -28 0 -38l-809 -412c-20 -10 -41 1 -41 31v250h-2309v2100z" />
    <glyph glyph-name="125" unicode="&#xe07d;" 
d="M0 2700h300v-1800h2031l-122 250c-10 30 2 41 32 31l909 -412c30 -10 30 -28 10 -38l-910 -412c-30 -10 -41 1 -31 31l112 250h-2331v2100z" />
    <glyph glyph-name="126" unicode="&#xe07e;" 
d="M0 2700h300v-1800h2300v250c0 30 21 39 41 19l518 -388c20 -20 20 -42 0 -62l-518 -388c-20 -20 -41 -11 -41 19v250h-2600v2100z" />
    <glyph glyph-name="127" unicode="&#xe07f;" 
d="M0 2900h300v-1800h2388l-538 500h350l700 -650l-700 -650h-350l538 500h-2688v2100z" />
    <glyph glyph-name="128" unicode="&#xe080;" 
d="M2334 1984c5 0 11 -1 16 -3c270 -138 538 -276 809 -412c20 -10 20 -28 0 -38c-271 -136 -539 -274 -809 -412c-20 -10 -41 1 -41 31v250h-2309v300h2309v250c0 22 11 34 25 34z" />
    <glyph glyph-name="129" unicode="&#xe081;" 
d="M2222 1994c5 0 11 -1 19 -3l647 -291h12v-6l250 -113c30 -20 30 -40 0 -50l-250 -112v-19h-40l-619 -281c-30 -10 -42 1 -32 31l110 250h-2319v300h2325l-116 259c-8 22 -2 35 13 35z" />
    <glyph glyph-name="130" unicode="&#xe082;" 
d="M2034 2194c5 0 11 -1 16 -3l1109 -600c20 -30 20 -50 0 -60l-1109 -600c-20 -10 -41 -2 -41 28v441h-2009v300h2009v459c0 22 11 35 25 35z" />
    <glyph glyph-name="131" unicode="&#xe083;" 
d="M1819 2150c-10 31 3 38 22 19l1006 -469h53v-25l250 -116c30 0 30 -18 0 -28l-250 -115v-16h-31l-1028 -481c-30 -10 -42 2 -22 22l215 459h-2034v300h2031z" />
    <glyph glyph-name="132" unicode="&#xe084;" 
d="M2509 2241c0 27 22 28 32 9l628 -681c10 0 10 -40 0 -60l-628 -678c-20 -20 -32 -10 -32 10v559h-2509v300h2509v541z" />
    <glyph glyph-name="133" unicode="&#xe085;" 
d="M2300 2150c0 30 21 39 41 19l818 -588c20 -20 20 -42 0 -62l-818 -588c-20 -20 -41 -11 -41 19v450h-2300v300h2300v450z" />
    <glyph glyph-name="134" unicode="&#xe086;" 
d="M2709 2041c0 27 22 28 32 9l428 -481c10 0 10 -40 0 -60l-428 -478c-20 -20 -32 -10 -32 10v359h-2709v300h2709v341z" />
    <glyph glyph-name="135" unicode="&#xe087;" 
d="M2600 1950c0 30 21 39 41 19l518 -388c20 -20 20 -42 0 -62l-518 -388c-20 -20 -41 -11 -41 19v250h-2600v300h2600v250z" />
    <glyph glyph-name="136" unicode="&#xe088;" 
d="M1900 2200h400l900 -650l-900 -650h-400l694 500h-2594v300h2594z" />
    <glyph glyph-name="137" unicode="&#xe089;" 
d="M1700 2400h400l1100 -850l-1100 -850h-400l906 700h-2606v300h2606z" />
    <glyph glyph-name="138" unicode="&#xe08a;" 
d="M2150 2500h350l700 -950l-700 -950h-350l591 800h-2741v300h2741z" />
    <glyph glyph-name="139" unicode="&#xe08b;" 
d="M1700 2400h400l1100 -850l-1100 -850h-400l906 700h-2606v300h2606z" />
    <glyph glyph-name="140" unicode="&#xe08c;" 
d="M2300 2300h300l600 -750l-600 -750h-300l481 600h-2781v300h2781z" />
    <glyph glyph-name="141" unicode="&#xe08d;" 
d="M2150 2200h350l700 -650l-700 -650h-350l538 500h-2688v300h2688z" />
    <glyph glyph-name="142" unicode="&#xe08e;" horiz-adv-x="1400" 
d="M385 3100h600v-2009h340c30 0 39 -21 19 -41l-650 -1109c0 -20 -20 -20 -40 0l-650 1109c-10 20 2 41 22 41h359v2009z" />
    <glyph glyph-name="143" unicode="&#xe08f;" horiz-adv-x="1400" 
d="M385 3100h600v-1969l350 150c30 10 39 -1 19 -31l-369 -731v-19h-9l-282 -559c0 -20 -18 -20 -28 0c-219 438 -440 873 -662 1309c-10 20 2 41 22 31l359 -156v1975z" />
    <glyph glyph-name="144" unicode="&#xe090;" horiz-adv-x="2000" 
d="M685 3100h600v-1509h640c30 0 39 -21 19 -41l-950 -1609c0 -20 -20 -20 -40 0l-950 1609c-10 20 2 41 22 41h659v1509z" />
    <glyph glyph-name="145" unicode="&#xe091;" horiz-adv-x="2000" 
d="M685 3100h600v-1478l650 259c30 10 39 -1 19 -31l-669 -1331v-19h-9l-282 -560c0 -20 -18 -20 -28 0c-320 637 -641 1274 -962 1910c-10 20 2 41 22 31l659 -262v1481z" />
    <glyph glyph-name="146" unicode="&#xe092;" horiz-adv-x="2200" 
d="M774 3100h600v-2400h750c30 0 29 -11 9 -31l-1019 -738c-20 -20 -61 -20 -81 0l-1019 738c-20 20 -20 31 10 31h750v2400z" />
    <glyph glyph-name="147" unicode="&#xe093;" horiz-adv-x="2000" 
d="M679 3100h600v-1900h650c30 0 39 -21 19 -41l-937 -1218c-20 -20 -43 -20 -63 0l-937 1218c-20 20 -11 41 19 41h650z" />
    <glyph glyph-name="148" unicode="&#xe094;" horiz-adv-x="1600" 
d="M474 3100h600v-2600h450c30 0 29 -11 9 -31l-719 -538c-20 -20 -61 -20 -81 0l-719 538c-20 20 -20 31 10 31h450v2600z" />
    <glyph glyph-name="149" unicode="&#xe095;" horiz-adv-x="1400" 
d="M379 3100h600v-2300h350c30 0 39 -21 19 -41l-637 -818c-20 -20 -43 -20 -63 0l-637 818c-20 20 -11 41 19 41h350z" />
    <glyph glyph-name="150" unicode="&#xe096;" horiz-adv-x="2500" 
d="M2044 2744l425 -425l-1422 -1422l241 -241c21 -21 15 -40 -13 -40l-1247 -325c-14 -14 -28 0 -28 28l325 1243c7 21 30 30 44 16l253 -256z" />
    <glyph glyph-name="151" unicode="&#xe097;" horiz-adv-x="2500" 
d="M2039 2744h1l425 -425l-1394 -1394l353 -141c28 -14 29 -27 -6 -34l-779 -256l-12 -13l-6 6l-597 -197c-14 -14 -29 1 -22 22l462 1391c7 21 28 30 35 9l147 -362z" />
    <glyph glyph-name="152" unicode="&#xe098;" horiz-adv-x="2500" 
d="M2044 2744l425 -425l-1069 -1069l453 -450c21 -21 16 -44 -12 -44l-1813 -465c-14 -14 -28 0 -28 28l469 1809c7 21 26 30 40 16l466 -469z" />
    <glyph glyph-name="153" unicode="&#xe099;" horiz-adv-x="2500" 
d="M2039 2744h1l425 -425l-1044 -1044l640 -278c28 -14 29 -28 -6 -35l-1416 -468l-12 -13l-6 6l-597 -197c-14 -14 -29 1 -22 22l672 2028c7 21 30 28 37 7l282 -650z" />
    <glyph glyph-name="154" unicode="&#xe09a;" horiz-adv-x="2700" 
d="M2256 2844l425 -425l-1697 -1697l532 -532c21 -21 12 -28 -16 -28l-1244 200c-28 0 -56 29 -56 57l-200 1243c0 28 7 37 28 16l531 -531z" />
    <glyph glyph-name="155" unicode="&#xe09b;" horiz-adv-x="2500" 
d="M2044 2744l425 -425l-1344 -1344l459 -459c21 -21 16 -41 -12 -41l-1528 -200c-28 0 -44 16 -44 44l200 1528c0 28 20 33 41 12l459 -459z" />
    <glyph glyph-name="156" unicode="&#xe09c;" horiz-adv-x="2700" 
d="M2184 2844l425 -425l-1837 -1838l316 -319c21 -21 15 -28 -13 -28l-891 128c-28 0 -56 29 -56 57l-128 890c0 28 7 34 28 13l319 -316z" />
    <glyph glyph-name="157" unicode="&#xe09d;" horiz-adv-x="2500" 
d="M2044 2744l425 -425l-1625 -1625l247 -247c21 -21 12 -44 -16 -44l-1031 -128c-28 0 -44 16 -44 44l128 1031c0 28 23 37 44 16l247 -247z" />
    <glyph glyph-name="158" unicode="&#xe09e;" horiz-adv-x="2500" 
d="M2050 2744l425 -425l-1484 -1485l990 141l-497 -494l-1484 -212l212 1484l494 497l-140 -991z" />
    <glyph glyph-name="159" unicode="&#xe09f;" horiz-adv-x="2500" 
d="M2050 2744l425 -425l-1406 -1407l1334 204l-565 -566l-1838 -281l281 1837l566 566l-203 -1335z" />
    <glyph glyph-name="160" unicode="&#xe0a0;" horiz-adv-x="2900" 
d="M2403 2944l425 -425l-1712 -1713l1006 -265l-425 -425l-1344 353l-353 1343l425 426l266 -1007z" />
    <glyph glyph-name="161" unicode="&#xe0a1;" horiz-adv-x="2500" 
d="M2050 2744l425 -425l-1484 -1485h1131l-566 -565h-1556v1556l566 566v-1132z" />
    <glyph glyph-name="162" unicode="&#xe0a2;" horiz-adv-x="2800" 
d="M2334 2944c142 -142 284 -283 426 -425l-1710 -1710l791 -200l-425 -425l-1132 285l-284 1131l425 425l200 -791z" />
    <glyph glyph-name="163" unicode="&#xe0a3;" horiz-adv-x="2500" 
d="M2050 2744l425 -425l-1625 -1625h847l-425 -425h-1272v1272l425 425v-847z" />
    <glyph glyph-name="164" unicode="&#xe0a4;" horiz-adv-x="1800" 
d="M600 3200h600v-2100l600 800v-700l-900 -1200l-900 1200v700l600 -800v2100z" />
    <glyph glyph-name="165" unicode="&#xe0a5;" horiz-adv-x="2200" 
d="M800 3200h600v-1991l800 1091v-800l-1100 -1500l-1100 1500v800l800 -1091v1991z" />
    <glyph glyph-name="166" unicode="&#xe0a6;" horiz-adv-x="2400" 
d="M900 3200h600v-2425l900 525v-600l-1200 -700l-1200 700v600l900 -525v2425z" />
    <glyph glyph-name="167" unicode="&#xe0a7;" horiz-adv-x="2200" 
d="M800 3200h600v-2100l800 800v-800l-1100 -1100l-1100 1100v800l800 -800v2100z" />
    <glyph glyph-name="168" unicode="&#xe0a8;" horiz-adv-x="2000" 
d="M700 3200h600v-2419l700 419v-600l-1000 -600l-1000 600v600l700 -419v2419z" />
    <glyph glyph-name="169" unicode="&#xe0a9;" horiz-adv-x="1800" 
d="M600 3200h600v-2300l600 600v-600l-900 -900l-900 900v600l600 -600v2300z" />
    <glyph glyph-name="170" unicode="&#xe0aa;" horiz-adv-x="2500" 
d="M425 2744l1422 -1422l241 240c21 21 40 16 40 -12l325 -1247c14 -14 0 -28 -28 -28l-1244 325c-21 7 -29 30 -15 44l256 253l-1422 1422z" />
    <glyph glyph-name="171" unicode="&#xe0ab;" horiz-adv-x="2500" 
d="M425 2744l1394 -1394l140 353c14 28 28 29 35 -6l256 -778l13 -13l-7 -6l197 -597c14 -14 -1 -29 -22 -22l-1390 463c-21 7 -31 27 -10 34l363 147l-1394 1394z" />
    <glyph glyph-name="172" unicode="&#xe0ac;" horiz-adv-x="2500" 
d="M425 2744l1069 -1069l450 453c21 21 44 16 44 -12l465 -1813c14 -14 0 -28 -28 -28l-1809 469c-21 7 -30 26 -16 40l469 466l-1069 1069z" />
    <glyph glyph-name="173" unicode="&#xe0ad;" horiz-adv-x="2500" 
d="M425 2744l1044 -1044l278 641c14 28 27 28 34 -7l469 -1415l13 -13l-7 -6l197 -597c14 -14 -1 -29 -22 -22l-2028 672c-21 7 -27 30 -6 37l650 282l-1047 1047z" />
    <glyph glyph-name="174" unicode="&#xe0ae;" horiz-adv-x="2700" 
d="M425 2844l1697 -1697l531 531c21 21 28 12 28 -16l-200 -1243c0 -28 -28 -57 -56 -57l-1244 -200c-28 0 -36 7 -15 28l531 532l-1697 1697z" />
    <glyph glyph-name="175" unicode="&#xe0af;" horiz-adv-x="2500" 
d="M425 2744l1344 -1344l459 459c21 21 41 16 41 -12l200 -1528c0 -28 -16 -44 -44 -44l-1528 200c-28 0 -34 20 -13 41l460 459l-1344 1344z" />
    <glyph glyph-name="176" unicode="&#xe0b0;" horiz-adv-x="2700" 
d="M425 2844l1837 -1838l319 316c21 21 28 15 28 -13l-128 -890c0 -28 -28 -57 -56 -57l-891 -128c-28 0 -33 7 -12 28l316 319l-1838 1838z" />
    <glyph glyph-name="177" unicode="&#xe0b1;" horiz-adv-x="2500" 
d="M425 2744l1625 -1625l247 247c21 21 44 12 44 -16l128 -1031c0 -28 -16 -44 -44 -44l-1031 128c-28 0 -37 23 -16 44l247 247l-1625 1625z" />
    <glyph glyph-name="178" unicode="&#xe0b2;" horiz-adv-x="2500" 
d="M425 2744l1484 -1485l-140 991l494 -497l212 -1484l-1484 212l-497 494l990 -141l-1484 1485z" />
    <glyph glyph-name="179" unicode="&#xe0b3;" horiz-adv-x="2500" 
d="M0 2319l425 425l1406 -1407l-203 1335l566 -566l281 -1837l-1837 281l-566 566l1334 -204z" />
    <glyph glyph-name="180" unicode="&#xe0b4;" horiz-adv-x="2900" 
d="M425 2944l1713 -1713l265 1007l425 -426l-353 -1343l-1344 -353l-425 425l1006 265l-1712 1713z" />
    <glyph glyph-name="181" unicode="&#xe0b5;" horiz-adv-x="2500" 
d="M425 2744l1484 -1485v1132l566 -566v-1556h-1556l-566 565h1131l-1484 1485z" />
    <glyph glyph-name="182" unicode="&#xe0b6;" horiz-adv-x="2800" 
d="M0 2519l425 425l1709 -1710l200 791l426 -425l-285 -1131l-1131 -285l-425 425l790 200z" />
    <glyph glyph-name="183" unicode="&#xe0b7;" horiz-adv-x="2500" 
d="M425 2744l1625 -1625v847l425 -425v-1272h-1272l-425 425h847l-1625 1625z" />
    <glyph glyph-name="184" unicode="&#xe0b8;" 
d="M1124 2181c19 10 41 0 41 -21v-360h2009v-600h-2009v-340c0 -30 -21 -39 -41 -19l-1109 650c-20 0 -20 20 0 40z" />
    <glyph glyph-name="185" unicode="&#xe0b9;" 
d="M1340 2184c14 0 24 -10 16 -25l-156 -359h1975v-600h-1969l150 -350c10 -30 -2 -39 -32 -19l-731 369h-19v9l-559 282c-20 0 -20 18 0 28c438 219 873 440 1309 662c5 2 12 3 16 3z" />
    <glyph glyph-name="186" unicode="&#xe0ba;" 
d="M1624 2481c19 10 41 0 41 -21v-660h1509v-600h-1509v-640c0 -30 -21 -39 -41 -19l-1609 950c-20 0 -20 20 0 40z" />
    <glyph glyph-name="187" unicode="&#xe0bb;" 
d="M1940 2484c14 0 24 -10 16 -25l-263 -659h1481v-600h-1478l260 -650c10 -30 -2 -39 -32 -19l-1331 669h-19v9l-559 282c-20 0 -20 18 0 28c637 320 1273 641 1909 962c5 2 12 3 16 3z" />
    <glyph glyph-name="188" unicode="&#xe0bc;" 
d="M752 2559c18 18 32 27 32 -9v-750h2400v-600h-2400v-750c0 -30 -12 -30 -32 -10l-737 1019c-20 20 -20 62 0 82z" />
    <glyph glyph-name="189" unicode="&#xe0bd;" 
d="M1234 2569c16 16 40 15 40 -19v-650h1900v-600h-1900v-650c0 -30 -20 -39 -40 -19l-1219 938c-20 20 -20 42 0 62z" />
    <glyph glyph-name="190" unicode="&#xe0be;" 
d="M552 2259c18 18 32 27 32 -9v-450h2600v-600h-2600v-450c0 -30 -12 -30 -32 -10l-537 719c-20 20 -20 62 0 82z" />
    <glyph glyph-name="191" unicode="&#xe0bf;" 
d="M834 2269c16 16 40 15 40 -19v-350h2300v-600h-2300v-350c0 -30 -20 -39 -40 -19l-819 638c-20 20 -20 42 0 62z" />
    <glyph glyph-name="192" unicode="&#xe0c0;" 
d="M1200 2500h700l-800 -600h2100v-600h-2100l800 -600h-700l-1200 900z" />
    <glyph glyph-name="193" unicode="&#xe0c1;" 
d="M1500 2700h800l-1091 -800h1991v-600h-1991l1091 -800h-800l-1500 1100z" />
    <glyph glyph-name="194" unicode="&#xe0c2;" 
d="M700 2800h600l-525 -900h2425v-600h-2425l525 -900h-600l-700 1200z" />
    <glyph glyph-name="195" unicode="&#xe0c3;" 
d="M1100 2700h800l-800 -800h2100v-600h-2100l800 -800h-800l-1100 1100z" />
    <glyph glyph-name="196" unicode="&#xe0c4;" 
d="M600 2600h600l-419 -700h2419v-600h-2419l419 -700h-600l-600 1000z" />
    <glyph glyph-name="197" unicode="&#xe0c5;" 
d="M900 2500h600l-600 -600h2300v-600h-2300l600 -600h-600l-900 900z" />
    <glyph glyph-name="198" unicode="&#xe0c6;" 
d="M2009 2241c0 30 21 38 41 18l1109 -650c20 0 20 -20 0 -40l-1109 -650c-20 -10 -41 2 -41 22v359h-2009v600h2009v341z" />
    <glyph glyph-name="199" unicode="&#xe0c7;" 
d="M1819 2278c5 4 16 1 31 -9l731 -369h19v-9l559 -282c20 0 20 -18 0 -28c-438 -219 -873 -440 -1309 -662c-20 -10 -41 2 -31 22l156 359h-1975v600h1969l-150 350c-5 15 -5 24 0 28z" />
    <glyph glyph-name="200" unicode="&#xe0c8;" 
d="M1509 2541c0 30 21 38 41 18l1609 -950c20 0 20 -20 0 -40l-1609 -950c-20 -10 -41 2 -41 22v659h-1509v600h1509v641z" />
    <glyph glyph-name="201" unicode="&#xe0c9;" 
d="M1219 2578c5 4 16 1 31 -9l1331 -669h19v-9l560 -282c20 0 20 -18 0 -28c-637 -320 -1274 -641 -1910 -962c-20 -10 -41 2 -31 22l262 659h-1481v600h1478l-259 650c-5 15 -5 24 0 28z" />
    <glyph glyph-name="202" unicode="&#xe0ca;" 
d="M2400 2550c0 36 13 28 31 10l738 -1019c20 -20 20 -62 0 -82l-738 -1018c-20 -20 -31 -21 -31 9v750h-2400v600h2400v750z" />
    <glyph glyph-name="203" unicode="&#xe0cb;" 
d="M1900 2450c0 30 21 39 41 19l1218 -938c20 -20 20 -42 0 -62l-1218 -938c-20 -20 -41 -11 -41 19v650h-1900v600h1900v650z" />
    <glyph glyph-name="204" unicode="&#xe0cc;" 
d="M2600 2250c0 36 13 28 31 10l538 -719c20 -20 20 -62 0 -82l-538 -718c-20 -20 -31 -21 -31 9v450h-2600v600h2600v450z" />
    <glyph glyph-name="205" unicode="&#xe0cd;" 
d="M2300 2150c0 30 21 39 41 19l818 -638c20 -20 20 -42 0 -62l-818 -638c-20 -20 -41 -11 -41 19v350h-2300v600h2300v350z" />
    <glyph glyph-name="206" unicode="&#xe0ce;" 
d="M1300 2500h700l1200 -900l-1200 -900h-700l800 600h-2100v600h2100z" />
    <glyph glyph-name="207" unicode="&#xe0cf;" 
d="M900 2700h800l1500 -1100l-1500 -1100h-800l1091 800h-1991v600h1991z" />
    <glyph glyph-name="208" unicode="&#xe0d0;" 
d="M1900 2800h600l700 -1200l-700 -1200h-600l525 900h-2425v600h2425z" />
    <glyph glyph-name="209" unicode="&#xe0d1;" 
d="M1300 2700h800l1100 -1100l-1100 -1100h-800l800 800h-2100v600h2100z" />
    <glyph glyph-name="210" unicode="&#xe0d2;" 
d="M2000 2600h600l600 -1000l-600 -1000h-600l419 700h-2419v600h2419z" />
    <glyph glyph-name="211" unicode="&#xe0d3;" 
d="M1700 2500h600l900 -900l-900 -900h-600l600 600h-2300v600h2300z" />
    <glyph glyph-name="212" unicode="&#xe0d4;" horiz-adv-x="1400" 
d="M673 3175c8 0 18 -6 28 -16l650 -1109c10 -20 -1 -41 -21 -41h-360v-2009h-600v2009h-340c-30 0 -39 21 -19 41l650 1109c0 10 4 16 12 16z" />
    <glyph glyph-name="213" unicode="&#xe0d5;" horiz-adv-x="1400" 
d="M680 3175h-1c6 0 14 -6 19 -16c219 -438 441 -873 663 -1309c10 -20 -2 -42 -22 -32l-359 157v-1975h-600v1969l-350 -150c-30 -10 -39 1 -19 31l369 731v19h9l281 559c0 10 4 16 10 16z" />
    <glyph glyph-name="214" unicode="&#xe0d6;" horiz-adv-x="2000" 
d="M973 3175c8 0 18 -6 28 -16l950 -1609c10 -20 -1 -41 -21 -41h-660v-1509h-600v1509h-640c-30 0 -39 21 -19 41l950 1609c0 10 4 16 12 16z" />
    <glyph glyph-name="215" unicode="&#xe0d7;" horiz-adv-x="2000" 
d="M980 3175c6 0 13 -6 18 -16c320 -637 642 -1273 963 -1909c10 -20 -2 -41 -22 -31l-659 262v-1481h-600v1478l-650 -259c-30 -10 -39 1 -19 31l669 1331v19h9l281 559c0 10 4 16 10 16z" />
    <glyph glyph-name="216" unicode="&#xe0d8;" horiz-adv-x="2200" 
d="M1074 3184c15 0 30 -5 40 -15l1019 -738c20 -20 21 -31 -9 -31h-750v-2400h-600v2400h-750c-30 0 -30 11 -10 31l1019 738c10 10 26 15 41 15z" />
    <glyph glyph-name="217" unicode="&#xe0d9;" horiz-adv-x="2000" 
d="M980 3175c10 0 21 -6 31 -16l937 -1218c20 -20 12 -41 -18 -41h-650v-1900h-600v1900h-650c-30 0 -39 21 -19 41l937 1218c10 10 22 16 32 16z" />
    <glyph glyph-name="218" unicode="&#xe0da;" horiz-adv-x="1600" 
d="M774 3184c15 0 30 -5 40 -15l719 -538c20 -20 21 -31 -9 -31h-450v-2600h-600v2600h-450c-30 0 -30 11 -10 31l719 538c10 10 26 15 41 15z" />
    <glyph glyph-name="219" unicode="&#xe0db;" horiz-adv-x="1400" 
d="M680 3175c10 0 21 -6 31 -16l637 -818c20 -20 12 -41 -18 -41h-350v-2300h-600v2300h-350c-30 0 -39 21 -19 41l637 818c10 10 22 16 32 16z" />
    <glyph glyph-name="220" unicode="&#xe0dc;" horiz-adv-x="2500" 
d="M34 2825l1244 -325c21 -7 29 -30 15 -44l-256 -253l1422 -1422l-425 -425l-1422 1422l-241 -240c-21 -21 -40 -16 -40 12l-325 1247c-14 14 0 28 28 28z" />
    <glyph glyph-name="221" unicode="&#xe0dd;" horiz-adv-x="2500" 
d="M12 2819c4 1 11 2 16 0l1390 -463c21 -7 31 -27 10 -34l-363 -147l1394 -1394l-425 -425l-1394 1394l-140 -353c-14 -28 -28 -29 -35 6l-256 778l-12 13l6 6l-197 597c-11 11 -6 20 6 22z" />
    <glyph glyph-name="222" unicode="&#xe0de;" horiz-adv-x="2500" 
d="M34 2825l1809 -469c21 -7 30 -26 16 -40l-469 -466l1069 -1069l-425 -425l-1069 1069l-450 -453c-21 -21 -44 -16 -44 12l-465 1813c-14 14 0 28 28 28z" />
    <glyph glyph-name="223" unicode="&#xe0df;" horiz-adv-x="2500" 
d="M12 2819c4 1 11 2 16 0l2028 -672c21 -7 27 -31 6 -38l-650 -281l1047 -1047l-425 -425l-1044 1044l-278 -641c-14 -28 -27 -28 -34 7l-469 1415l-12 13l6 6l-197 597c-11 11 -6 20 6 22z" />
    <glyph glyph-name="224" unicode="&#xe0e0;" horiz-adv-x="2700" 
d="M1500 2938c28 0 37 -8 16 -29l-532 -531l1697 -1697l-425 -425l-1697 1697l-531 -531c-21 -21 -28 -13 -28 15l200 1244c0 28 28 57 56 57z" />
    <glyph glyph-name="225" unicode="&#xe0e1;" horiz-adv-x="2500" 
d="M44 2825l1528 -200c28 0 33 -20 12 -41l-459 -459l1344 -1344l-425 -425l-1344 1344l-459 -459c-21 -21 -41 -16 -41 12l-200 1528c0 28 16 44 44 44z" />
    <glyph glyph-name="226" unicode="&#xe0e2;" horiz-adv-x="2700" 
d="M1075 2866c28 0 34 -7 13 -28l-316 -319l1837 -1838l-425 -425l-1837 1838l-319 -316c-21 -21 -28 -15 -28 13l128 890c0 28 28 57 56 57z" />
    <glyph glyph-name="227" unicode="&#xe0e3;" horiz-adv-x="2500" 
d="M44 2825l1031 -128c28 0 37 -23 16 -44l-247 -247l1625 -1625l-425 -425l-1625 1625l-247 -247c-21 -21 -44 -12 -44 16l-128 1031c0 28 16 44 44 44z" />
    <glyph glyph-name="228" unicode="&#xe0e4;" horiz-adv-x="2500" 
d="M0 2831l1484 -212l497 -494l-990 141l1484 -1485l-425 -425l-1484 1484l140 -990l-494 497z" />
    <glyph glyph-name="229" unicode="&#xe0e5;" horiz-adv-x="2500" 
d="M0 2831l1838 -281l565 -566l-1334 204l1406 -1407l-425 -425l-1406 1406l203 -1334l-566 566z" />
    <glyph glyph-name="230" unicode="&#xe0e6;" horiz-adv-x="2900" 
d="M1697 2984l425 -425l-1006 -265l1712 -1713l-425 -425l-1712 1713l-266 -1007l-425 426l353 1343z" />
    <glyph glyph-name="231" unicode="&#xe0e7;" horiz-adv-x="2500" 
d="M0 2831h1556l566 -565h-1131l1484 -1485l-425 -425l-1484 1485v-1132l-566 566v1556z" />
    <glyph glyph-name="232" unicode="&#xe0e8;" horiz-adv-x="2800" 
d="M284 2631l1132 285l425 -426l-791 -200l1709 -1709l-425 -425l-1709 1710l-200 -791l-425 425z" />
    <glyph glyph-name="233" unicode="&#xe0e9;" horiz-adv-x="2500" 
d="M0 2831h1272l425 -425h-847l1625 -1625l-425 -425l-1625 1625v-847l-425 425v1272z" />
    <glyph glyph-name="234" unicode="&#xe0ea;" horiz-adv-x="1800" 
d="M900 3200l900 -1200v-700l-600 800v-2100h-600v2100l-600 -800v700z" />
    <glyph glyph-name="235" unicode="&#xe0eb;" horiz-adv-x="2200" 
d="M1100 3200l1100 -1500v-800l-800 1091v-1991h-600v1991l-800 -1091v800z" />
    <glyph glyph-name="236" unicode="&#xe0ec;" horiz-adv-x="2400" 
d="M1200 3200l1200 -700v-600l-900 525v-2425h-600v2425l-900 -525v600z" />
    <glyph glyph-name="237" unicode="&#xe0ed;" horiz-adv-x="2200" 
d="M1100 3200l1100 -1100v-800l-800 800v-2100h-600v2100l-800 -800v800z" />
    <glyph glyph-name="238" unicode="&#xe0ee;" horiz-adv-x="2000" 
d="M1000 3200l1000 -600v-600l-700 419v-2419h-600v2419l-700 -419v600z" />
    <glyph glyph-name="239" unicode="&#xe0ef;" horiz-adv-x="1800" 
d="M900 3200l900 -900v-600l-600 600v-2300h-600v2300l-600 -600v600z" />
    <glyph glyph-name="240" unicode="&#xe0f0;" horiz-adv-x="2500" 
d="M2441 2809c15 15 28 0 28 -28l-325 -1244c-7 -21 -30 -29 -44 -15l-253 256l-1422 -1422l-425 425l1422 1422l-241 241c-21 21 -15 40 13 40z" />
    <glyph glyph-name="241" unicode="&#xe0f1;" horiz-adv-x="2500" 
d="M2450 2816c10 1 18 -13 13 -29l-463 -1390c-7 -21 -27 -31 -34 -10l-147 363l-1394 -1394l-425 425l1394 1394l-353 141c-28 14 -29 27 6 34l778 256l13 13l6 -7l597 197c4 4 6 7 9 7z" />
    <glyph glyph-name="242" unicode="&#xe0f2;" horiz-adv-x="2500" 
d="M2450 2816c10 1 19 -14 19 -35l-469 -1809c-7 -21 -27 -30 -41 -16l-465 469l-1069 -1069l-425 425l1069 1069l-453 450c-21 21 -16 44 12 44l1813 465c4 4 6 7 9 7z" />
    <glyph glyph-name="243" unicode="&#xe0f3;" horiz-adv-x="2500" 
d="M2450 2816c10 1 18 -13 13 -29l-672 -2028c-7 -21 -31 -27 -38 -6l-281 650l-1047 -1047l-425 425l1044 1044l-641 278c-28 14 -28 27 7 34l1415 469l13 13l6 -7l597 197c4 4 6 7 9 7z" />
    <glyph glyph-name="244" unicode="&#xe0f4;" horiz-adv-x="2700" 
d="M1181 2938l1244 -200c28 0 56 -29 56 -57l200 -1244c0 -28 -7 -36 -28 -15l-531 531l-1697 -1697l-425 425l1697 1697l-531 531c-21 21 -13 29 15 29z" />
    <glyph glyph-name="245" unicode="&#xe0f5;" horiz-adv-x="2500" 
d="M2425 2825c28 0 44 -16 44 -44l-200 -1528c0 -28 -20 -33 -41 -12l-459 459l-1344 -1344l-425 425l1344 1344l-460 459c-21 21 -15 41 13 41z" />
    <glyph glyph-name="246" unicode="&#xe0f6;" horiz-adv-x="2700" 
d="M1519 2866c4 1 8 0 15 0l891 -128c28 0 56 -29 56 -57l128 -890c0 -28 -7 -34 -28 -13l-319 316l-1837 -1838l-425 425l1838 1838l-316 319c-16 16 -16 25 -3 28z" />
    <glyph glyph-name="247" unicode="&#xe0f7;" horiz-adv-x="2500" 
d="M2425 2825c28 0 44 -16 44 -44l-128 -1031c0 -28 -23 -37 -44 -16l-247 247l-1625 -1625l-425 425l1625 1625l-247 247c-21 21 -12 44 16 44z" />
    <glyph glyph-name="248" unicode="&#xe0f8;" horiz-adv-x="2500" 
d="M2475 2831l-212 -1484l-494 -497l140 990l-1484 -1484l-425 425l1484 1485l-990 -141l497 494z" />
    <glyph glyph-name="249" unicode="&#xe0f9;" horiz-adv-x="2500" 
d="M2475 2831l-281 -1837l-566 -566l203 1334l-1406 -1406l-425 425l1406 1406l-1334 -203l566 566z" />
    <glyph glyph-name="250" unicode="&#xe0fa;" horiz-adv-x="2900" 
d="M1131 2984l1344 -353l353 -1343l-425 -426l-265 1007l-1713 -1713l-425 425l1712 1713l-1006 265z" />
    <glyph glyph-name="251" unicode="&#xe0fb;" horiz-adv-x="2500" 
d="M919 2831h1556v-1556l-566 -566v1132l-1484 -1485l-425 425l1484 1485h-1131z" />
    <glyph glyph-name="252" unicode="&#xe0fc;" horiz-adv-x="2800" 
d="M1344 2916l1131 -285l284 -1131l-425 -425l-200 791l-1709 -1710l-425 425l1709 1710l-790 200z" />
    <glyph glyph-name="253" unicode="&#xe0fd;" horiz-adv-x="2500" 
d="M1203 2831h1272v-1272l-425 -425v847l-1625 -1625l-425 425l1625 1625h-847z" />
    <glyph glyph-name="254" unicode="&#xe0fe;" horiz-adv-x="900" 
d="M416 3159c5 10 12 16 19 16c8 0 14 -6 19 -16c136 -271 274 -539 412 -809c10 -20 -1 -41 -31 -41h-250v-2309h-300v2309h-250c-30 0 -41 21 -31 41c138 270 276 538 412 809z" />
    <glyph glyph-name="255" unicode="&#xe0ff;" horiz-adv-x="900" 
d="M444 3172c9 0 14 -7 19 -22l112 -250h19v-41l282 -618c10 -30 -2 -42 -32 -32l-250 110v-2319h-300v2325l-259 -116c-30 -10 -41 2 -31 32l290 647v12h6l113 250c10 15 22 22 31 22z" />
    <glyph glyph-name="256" unicode="&#xe100;" horiz-adv-x="1300" 
d="M641 3175c10 0 17 -6 22 -16l600 -1109c10 -20 2 -41 -28 -41h-441v-2009h-300v2009h-459c-30 0 -41 21 -31 41l600 1109c15 10 27 16 37 16z" />
    <glyph glyph-name="257" unicode="&#xe101;" horiz-adv-x="1300" 
d="M630 3172c6 0 13 -7 18 -22l116 -250h16v-31l481 -1028c10 -30 -2 -42 -22 -22l-459 215v-2034h-300v2031l-450 -212c-30 -10 -39 2 -19 22l469 1006v53h25l115 250c0 15 4 22 10 22z" />
    <glyph glyph-name="258" unicode="&#xe102;" horiz-adv-x="1500" 
d="M717 3178c12 0 28 -4 38 -9l678 -628c20 -20 11 -32 -9 -32h-560v-2509h-300v2509h-540c-30 0 -30 22 -10 32l681 628c0 5 10 9 22 9z" />
    <glyph glyph-name="259" unicode="&#xe103;" horiz-adv-x="1300" 
d="M630 3175c10 0 21 -6 31 -16l587 -818c20 -20 12 -41 -18 -41h-450v-2300h-300v2300h-450c-30 0 -39 21 -19 41l587 818c10 10 22 16 32 16z" />
    <glyph glyph-name="260" unicode="&#xe104;" horiz-adv-x="1100" 
d="M517 3178c12 0 28 -4 38 -9l478 -428c20 -20 11 -32 -9 -32h-360v-2709h-300v2709h-340c-30 0 -30 22 -10 32l481 428c0 5 10 9 22 9z" />
    <glyph glyph-name="261" unicode="&#xe105;" horiz-adv-x="900" 
d="M430 3175c10 0 21 -6 31 -16l387 -518c20 -20 12 -41 -18 -41h-250v-2600h-300v2600h-250c-30 0 -39 21 -19 41l387 518c10 10 22 16 32 16z" />
    <glyph glyph-name="262" unicode="&#xe106;" horiz-adv-x="2400" 
d="M17 2725c4 1 8 -1 13 -3c288 -94 576 -188 865 -282c21 -7 28 -29 7 -50l-175 -178l1631 -1631l-213 -212l-1631 1631l-178 -175c-21 -21 -43 -15 -50 6l-284 863c-5 16 2 29 15 31z" />
    <glyph glyph-name="263" unicode="&#xe107;" horiz-adv-x="2400" 
d="M2 2681c-8 39 12 47 37 35l256 -97l13 12l28 -28l634 -241c28 -14 28 -29 0 -43l-253 -97l1641 -1641l-213 -212l-1643 1643l-104 -265c-14 -28 -26 -28 -40 0l-253 662l-10 10l3 3z" />
    <glyph glyph-name="264" unicode="&#xe108;" horiz-adv-x="2400" 
d="M0 2681c7 33 18 49 41 41l1209 -360c21 -7 30 -29 9 -50l-312 -309l1422 -1422l-213 -212l-1422 1421l-325 -324c-21 -21 -43 -15 -50 6z" />
    <glyph glyph-name="265" unicode="&#xe109;" horiz-adv-x="2400" 
d="M13 2722c5 0 12 -2 19 -6l260 -94l9 9l22 -22l1065 -387c28 -14 28 -28 0 -28l-475 -175l1438 -1438l-213 -212l-1434 1434l-172 -465c-14 -28 -28 -28 -28 0l-381 1046l-35 35l16 15l-94 260c-16 16 -12 29 3 28z" />
    <glyph glyph-name="266" unicode="&#xe10a;" horiz-adv-x="2400" 
d="M1005 2781c28 0 30 -14 16 -28l-397 -397l1775 -1775l-213 -212l-1775 1775l-381 -382c-21 -21 -35 -8 -28 13l34 928c-7 7 23 34 44 41z" />
    <glyph glyph-name="267" unicode="&#xe10b;" horiz-adv-x="2400" 
d="M44 2731l997 -162c28 0 33 -23 12 -44l-315 -319l1625 -1625l-213 -212l-1625 1625l-319 -316c-21 -21 -44 -16 -44 12l-162 997c0 28 16 44 44 44z" />
    <glyph glyph-name="268" unicode="&#xe10c;" horiz-adv-x="2400" 
d="M80 2744l644 37c28 0 26 -14 12 -28l-253 -256l1916 -1916l-213 -212l-1915 1915l-241 -240c-21 -21 -35 -6 -28 15l34 644c-7 7 23 34 44 41z" />
    <glyph glyph-name="269" unicode="&#xe10d;" horiz-adv-x="2400" 
d="M44 2731l644 -94c28 0 33 -19 12 -40l-175 -178l1837 -1838l-212 -212l-1838 1837l-178 -175c-21 -21 -40 -15 -40 13l-94 643c0 28 16 44 44 44z" />
    <glyph glyph-name="270" unicode="&#xe10e;" horiz-adv-x="2400" 
d="M0 2738l1097 -179l281 -281l-840 134l1831 -1831l-213 -212l-1834 1834l138 -844l-285 282z" />
    <glyph glyph-name="271" unicode="&#xe10f;" horiz-adv-x="2400" 
d="M175 1359l-175 1378l1378 -178l285 -281l-1135 144l1841 -1841l-213 -212l-1844 1843l147 -1137z" />
    <glyph glyph-name="272" unicode="&#xe110;" horiz-adv-x="2600" 
d="M1344 2816l247 -250l-982 -147l1938 -1938l-213 -212l-1937 1937l-147 -984l-250 250l178 1166z" />
    <glyph glyph-name="273" unicode="&#xe111;" horiz-adv-x="2400" 
d="M175 1359l-175 1378l1378 -178l285 -281l-1135 144l1841 -1841l-213 -212l-1844 1843l147 -1137z" />
    <glyph glyph-name="274" unicode="&#xe112;" horiz-adv-x="2500" 
d="M1059 2744l213 -213l-763 -84l1966 -1966l-213 -212l-1965 1965l-85 -762l-212 212l106 953z" />
    <glyph glyph-name="275" unicode="&#xe113;" horiz-adv-x="2400" 
d="M0 2738l953 -35l250 -250l-734 28l1900 -1900l-213 -212l-1900 1900l25 -735l-247 250z" />
    <glyph glyph-name="276" unicode="&#xe114;" horiz-adv-x="1400" 
d="M650 3200l650 -900v-400l-500 694v-2594h-300v2594l-500 -694v400z" />
    <glyph glyph-name="277" unicode="&#xe115;" horiz-adv-x="1800" 
d="M850 3200l850 -1100v-400l-700 906v-2606h-300v2606l-700 -906v400z" />
    <glyph glyph-name="278" unicode="&#xe116;" horiz-adv-x="2000" 
d="M950 3200l950 -700v-350l-800 591v-2741h-300v2741l-800 -591v350z" />
    <glyph glyph-name="279" unicode="&#xe117;" horiz-adv-x="1800" 
d="M850 3200l850 -1100v-400l-700 906v-2606h-300v2606l-700 -906v400z" />
    <glyph glyph-name="280" unicode="&#xe118;" horiz-adv-x="1600" 
d="M750 3200l750 -600v-300l-600 481v-2781h-300v2781l-600 -481v300z" />
    <glyph glyph-name="281" unicode="&#xe119;" horiz-adv-x="1400" 
d="M650 3200l650 -700v-350l-500 538v-2688h-300v2688l-500 -538v350z" />
    <glyph glyph-name="282" unicode="&#xe11a;" horiz-adv-x="2400" 
d="M2325 2712c21 7 35 -7 28 -28c-94 -288 -187 -576 -281 -865c-7 -21 -29 -28 -50 -7l-178 176l-1632 -1632l-212 213l1631 1631l-175 178c-21 21 -14 43 7 50z" />
    <glyph glyph-name="283" unicode="&#xe11b;" horiz-adv-x="2400" 
d="M2312 2712c35 7 49 -9 35 -37l-97 -256l12 -13l-28 -28l-240 -634c-14 -28 -30 -28 -44 0l-97 253l-1641 -1641l-212 213l1644 1643l-266 104c-28 14 -28 26 0 40l663 253l9 10l3 -3z" />
    <glyph glyph-name="284" unicode="&#xe11c;" horiz-adv-x="2400" 
d="M2313 2725c35 -7 47 -20 40 -41l-359 -1209c-7 -21 -29 -30 -50 -9l-310 312l-1422 -1422l-212 213l1422 1422l-325 325c-21 21 -15 43 6 50z" />
    <glyph glyph-name="285" unicode="&#xe11d;" horiz-adv-x="2400" 
d="M2325 2697c16 16 39 13 22 -22l-94 -260l9 -9l-21 -22l-388 -1066c-14 -28 -28 -28 -28 0l-175 476l-1438 -1438l-212 212l1434 1435l-465 172c-28 14 -28 28 0 28l1047 381l34 35l16 -16z" />
    <glyph glyph-name="286" unicode="&#xe11e;" horiz-adv-x="2500" 
d="M1394 2756c4 1 7 -1 12 -3l928 -34c7 7 34 -23 41 -44l37 -925c0 -28 -14 -30 -28 -16l-396 397l-1776 -1775l-212 213l1775 1775l-381 381c-16 16 -12 29 0 31z" />
    <glyph glyph-name="287" unicode="&#xe11f;" horiz-adv-x="2400" 
d="M2319 2719c28 0 44 -16 44 -44l-163 -997c0 -28 -23 -33 -44 -12l-318 315l-1626 -1625l-212 213l1625 1625l-316 318c-21 21 -15 44 13 44z" />
    <glyph glyph-name="288" unicode="&#xe120;" horiz-adv-x="2500" 
d="M1675 2756c4 1 11 -1 16 -3l643 -34c7 7 34 -23 41 -44l37 -644c0 -28 -14 -26 -28 -12l-256 253l-1916 -1916l-212 213l1916 1915l-241 241c-16 16 -12 29 0 31z" />
    <glyph glyph-name="289" unicode="&#xe121;" horiz-adv-x="2400" 
d="M2319 2719c28 0 43 -16 43 -44l-93 -644c0 -28 -20 -33 -41 -12l-178 175l-1838 -1838l-212 213l1838 1837l-176 178c-21 21 -15 41 13 41z" />
    <glyph glyph-name="290" unicode="&#xe122;" horiz-adv-x="2400" 
d="M2369 2725l-178 -1097l-282 -281l135 841l-1832 -1832l-212 213l1834 1834l-843 -137l281 284z" />
    <glyph glyph-name="291" unicode="&#xe123;" horiz-adv-x="2400" 
d="M2369 2725c-60 -459 -119 -919 -178 -1378l-282 -285l144 1135l-1841 -1841l-212 213l1844 1843l-1138 -146l285 284z" />
    <glyph glyph-name="292" unicode="&#xe124;" horiz-adv-x="2600" 
d="M1203 2803c388 -60 777 -119 1166 -178l178 -1166l-250 -247l-147 982l-1938 -1938l-212 213l1938 1937l-985 147z" />
    <glyph glyph-name="293" unicode="&#xe125;" horiz-adv-x="2400" 
d="M2369 2725c-60 -459 -119 -919 -178 -1378l-282 -285l144 1135l-1841 -1841l-212 213l1844 1843l-1138 -146l285 284z" />
    <glyph glyph-name="294" unicode="&#xe126;" horiz-adv-x="2500" 
d="M1416 2831l953 -106l106 -953l-213 -213l-84 763l-1966 -1966l-212 213l1966 1965l-763 85z" />
    <glyph glyph-name="295" unicode="&#xe127;" horiz-adv-x="2400" 
d="M2369 2725l-35 -953l-250 -250l28 734l-1900 -1900l-212 213l1900 1900l-734 -25l250 247z" />
    <glyph glyph-name="296" unicode="&#xe128;" horiz-adv-x="2800" 
d="M1200 2700h300v-2300h-300v2300zM1800 2400h300v-1700h-300v1700zM600 2200h300v-1300h-300v1300zM2400 1900h300v-700h-300v700zM0 1800h300v-500h-300v500z" />
    <glyph glyph-name="297" unicode="&#xe129;" 
d="M0 1569c0 441 180 842 469 1131l140 -141c-254 -254 -409 -603 -409 -990s156 -737 409 -991l-140 -141c-289 290 -469 691 -469 1132zM2731 2700c289 -289 469 -690 469 -1131s-180 -842 -469 -1132l-140 141c254 254 409 604 409 991s-155 736 -409 990zM600 1569
c0 275 113 525 294 706l140 -141c-145 -145 -234 -343 -234 -565s89 -421 234 -566l-140 -141c-181 181 -294 431 -294 707zM2306 2275c181 -181 294 -431 294 -706c0 -276 -113 -526 -294 -707l-140 141c145 145 234 344 234 566s-89 420 -234 565zM1600 1869
c166 0 300 -134 300 -300s-134 -300 -300 -300s-300 134 -300 300s134 300 300 300z" />
    <glyph glyph-name="298" unicode="&#xe12a;" 
d="M1600 3200c882 0 1600 -718 1600 -1600s-718 -1600 -1600 -1600s-1600 718 -1600 1600s718 1600 1600 1600zM1600 2900c-720 0 -1300 -580 -1300 -1300c0 -305 106 -585 281 -806l1825 1825c-222 175 -501 281 -806 281zM2619 2406l-1825 -1825
c222 -175 501 -281 806 -281c720 0 1300 580 1300 1300c0 305 -106 585 -281 806z" />
    <glyph glyph-name="299" unicode="&#xe12b;" 
d="M0 2800h300v-100h-200v-200h100v-100h-100v-200h200v-100h-200v-200h100v-100h-100v-200h200v-100h-200v-200h100v-100h-100v-200h200v-100h-200v-200h100v-100h-100v-200h3100v-100h-3200v2500zM1500 2500h500v-2000h-500v2000zM2300 2000h500v-1500h-500v1500z
M700 1600h500v-1100h-500v1100z" />
    <glyph glyph-name="300" unicode="&#xe12c;" 
d="M0 2600h100v-2000h-100v2000zM200 2600h400v-2000h-400v2000zM700 2600h200v-2000h-200v2000zM1000 2600h100v-2000h-100v2000zM1200 2600h200v-2000h-200v2000zM1500 2600h100v-2000h-100v2000zM1700 2600h100v-2000h-100v2000zM1900 2600h100v-2000h-100v2000z
M2100 2600h400v-2000h-400v2000zM2600 2600h100v-2000h-100v2000zM2800 2600h200v-2000h-200v2000zM3100 2600h100v-2000h-100v2000z" />
    <glyph glyph-name="301" unicode="&#xe12d;" 
d="M1475 2934c22 34 73 69 117 69h8h3c83 0 150 -67 150 -150c0 -27 -12 -65 -28 -87l-750 -1100c-25 -37 -81 -67 -125 -67c-83 0 -151 68 -151 151c0 25 12 63 26 84zM1838 2772l637 -938c14 -21 26 -59 26 -84c0 -83 -68 -151 -151 -151c-44 0 -100 30 -125 67l-566 828
l147 215c14 20 25 41 32 63zM2350 1500c162 0 273 157 244 300h556c28 0 50 -22 50 -50v-200c0 -28 -22 -50 -50 -50h-175l-363 -1450c-7 -27 -34 -50 -62 -50h-1900c-28 0 -55 23 -62 50l-363 1450h-175c-28 0 -50 22 -50 50v200c0 28 22 50 50 50h556
c-29 -143 82 -300 244 -300c78 0 154 38 203 106l141 194h812l141 -194c49 -68 125 -106 203 -106zM700 1162c-16 64 -116 39 -100 -25l200 -800c6 -23 28 -37 50 -37c36 0 58 31 50 62zM1300 1156c-8 64 -108 53 -100 -12l100 -800c3 -25 25 -44 50 -44c32 0 54 27 50 56z
M2000 1144c8 66 -92 75 -100 12l-100 -800c-3 -29 18 -56 50 -56c25 0 47 19 50 44zM2600 1137c16 66 -85 87 -100 25l-200 -800c-8 -31 14 -62 50 -62c22 0 44 14 50 37z" />
    <glyph glyph-name="302" unicode="&#xe12e;" 
d="M100 2400h2700c55 0 100 -45 100 -100v-300h250c28 0 50 -22 50 -50v-700c0 -28 -22 -50 -50 -50h-250v-300c0 -55 -45 -100 -100 -100h-2700c-55 0 -100 45 -100 100v1400c0 55 45 100 100 100z" />
    <glyph glyph-name="303" unicode="&#xe12f;" 
d="M840 3000c0 50 42 100 96 100h5h4h5h1300c55 0 100 -45 100 -100s-45 -100 -100 -100h-50v-1016l906 -1396l3 -7c44 -59 91 -134 91 -231c0 -190 -161 -350 -350 -350h-2500c-190 0 -350 161 -350 350c0 97 47 172 91 231c302 469 606 935 909 1403v1016h-50h-9
c-55 0 -101 45 -101 100zM1795 2650c0 26 22 50 50 50h5h150v200h-800v-1075c-156 -243 -315 -483 -472 -725h800c-17 30 -28 63 -28 100c0 110 90 200 200 200s200 -90 200 -200c0 -37 -11 -70 -28 -100h600l-197 300h-225h-5c-28 0 -50 22 -50 50c0 26 22 50 50 50h5h159
l-193 300h-166h-5c-28 0 -50 22 -50 50c0 26 22 50 50 50h5h150v300h-150h-5c-28 0 -50 22 -50 50c0 26 22 50 50 50h5h150v300h-150h-5c-28 0 -50 22 -50 50zM1300 800c-55 0 -100 -45 -100 -100s45 -100 100 -100s100 45 100 100s-45 100 -100 100zM1550 400
c-28 0 -50 -22 -50 -50s22 -50 50 -50s50 22 50 50s-22 50 -50 50z" />
    <glyph glyph-name="304" unicode="&#xe130;" horiz-adv-x="2800" 
d="M1400 3200c110 0 200 -90 200 -200c0 -45 -16 -86 -41 -119c310 -72 541 -349 541 -681v-103c0 -390 29 -741 400 -997c173 -119 283 -283 297 -463h3v-137h-2797v100h-3c0 10 3 18 3 28v9c14 180 124 344 297 463c371 256 400 607 400 997v103c0 332 231 609 541 681
c-25 33 -41 74 -41 119c0 110 90 200 200 200zM1000 400h800c0 -221 -179 -400 -400 -400s-400 179 -400 400z" />
    <glyph glyph-name="305" unicode="&#xe131;" 
d="M0 3200h1000v-1000h-1000v1000zM1100 3200h300v-100h-100v-100h-100v-100h-100v300zM1200 2900h200v-100h-100v-100h-100v200zM1400 2900v100h100v100h100v-100h100v-100h-100v-100h100v-100h100v100h200v-200h-100v-200h100v-100h-100v-100h100v-100h200v-100h-100v-100
h-100v100h-100v100h-100v-200h-100v100h-100v200h-100v-100h-100v-100h-100v100h-100v100h-100v100h200v-100h100v100h-100v200h100v100h-100v100h200v-100h100v100h-100v200h-100zM1600 3100v100h100v-100h-100zM1700 2900h100v-100h-100v100zM2000 2800v100h100v-100h-100
zM2000 2900h-100v200h-100v100h300v-100h-100v-200zM2000 2400v100h100v-100h-100zM2000 2300h100v-100h-100v100zM2200 2000h100v-100h-100v100zM2300 2000v100h100v-100h-100zM1800 1900h100v-200h-100v200zM1800 1700v-100h-100v100h100zM1700 1700h-200v300h100v-100
h100v-200zM1500 1700v-100h100v-100h100v-200h100v-100h-100v-100h-100v100h-200v100h-300v100h300v300h100zM1800 1200h100v-300h-100v-100h-100v-100h100v100h100v-200h-100v-200h-200v-100h-100v-100h-100v200h100v100h-100v200h100v-100h100v100h-100v100h100v200h200
v200zM1400 200v-100h-100v100h100zM1400 100h200v-100h-200v100zM1600 100v100h100v-100h-100zM1700 200v100h100v-100h-100zM1800 200h100v-200h-100v200zM1300 100v-100h-200v300h200v-100h-100v-100h100zM1400 400h-100v100h100v-100zM1300 500h-100v100h-100v100h100
v100h100v100h100v-200h-100v-200zM1200 500v-100h-100v100h100zM1300 900h-200v100h200v-100zM1300 1000v100h100v-100h-100zM1400 1000h100v-100h-100v100zM1500 1000v100h100v-100h-100zM1100 1300v-200h-100v100h-300v100h100v100h100v-100h200zM700 1300h-100v100h100
v-100zM600 1400h-100v100h-100v100h100v100h100v100h200v100h-200v100h300v100h100v-200h-100v-100h100v-100h100v300h200v-100h-100v-300h100v-100h-200v100h-100v-100h-100v100h-100v-200h-100v100h-100v-100zM400 1600h-100v-200h-100v100h-100v100h-100v200h200v-100
h100v100h100v100h200v-100h-100v-100h-100v-100zM300 1400h100v-100h100v-100h-100v-100h-400v200h100v-100h200v200zM100 1300v100h100v-100h-100zM100 1400h-100v100h100v-100zM200 1800v100h100v-100h-100zM200 1900h-200v200h100v-100h100v-100zM200 2000v100h200v-200
h-100v100h-100zM600 2000h-100v100h100v-100zM1300 1900h100v-200h-100v200zM1300 2500h-200v100h200v-100zM2200 3200h1000v-1000h-1000v1000zM100 3100v-800h800v800h-800zM2300 3100v-800h800v800h-800zM300 2900h400v-400h-400v400zM2500 2900h400v-400h-400v400z
M1700 2600v-100h100v100h-100zM1700 2400v-200h100v200h-100zM2400 1800h200v-200h200v200h200v-400h-600v-400h600v-200h-600v-400h600v-400h-200v200h-200v-200h-200v200h-400v200h200v1000h-200v200h400v200zM3000 1400h200v-400h-200v400zM3000 800h200v-400h-200v400z
M0 1000h1000v-1000h-1000v1000zM100 900v-800h800v800h-800zM300 700h400v-400h-400v400z" />
    <glyph glyph-name="306" unicode="&#xe132;" 
d="M700 3200h200v-500h200v500h200v-503c280 -25 500 -260 500 -547c0 -146 -57 -302 -150 -400c208 -108 350 -349 350 -600c0 -359 -291 -650 -650 -650h-50v-500h-200v500h-200v-500h-200v500h-700v200h200c110 0 200 90 200 200v1400c0 110 -90 200 -200 200h-200v200
h700v500zM800 2500v-700h250c193 0 350 157 350 350s-157 350 -350 350h-250zM2200 2100h1000v-1000h-1000v1000zM2400 1900v-600h600v600h-600zM800 1600v-900h350c248 0 450 202 450 450s-202 450 -450 450h-350z" />
    <glyph glyph-name="307" unicode="&#xe133;" horiz-adv-x="3000" 
d="M700 3200h200v-500h200v500h200v-503c280 -25 500 -260 500 -547c0 -146 -57 -302 -150 -400c208 -108 350 -349 350 -600c0 -359 -291 -650 -650 -650h-50v-500h-200v500h-200v-500h-200v500h-700v200h200c110 0 200 90 200 200v1400c0 110 -90 200 -200 200h-200v200
h700v500zM800 2500v-700h250c193 0 350 157 350 350s-157 350 -350 350h-250zM2400 2300v-200h300v-200h-300v-200l-400 300zM2500 1800l400 -300l-400 -300v200h-300v200h300v200zM800 1600v-900h350c248 0 450 202 450 450s-202 450 -450 450h-350z" />
    <glyph glyph-name="308" unicode="&#xe134;" horiz-adv-x="2000" 
d="M700 3200h200v-500h200v500h200v-503c280 -25 500 -260 500 -547c0 -146 -57 -302 -150 -400c208 -108 350 -349 350 -600c0 -359 -291 -650 -650 -650h-50v-500h-200v500h-200v-500h-200v500h-700v200h200c110 0 200 90 200 200v1400c0 110 -90 200 -200 200h-200v200
h700v500zM800 2500v-700h250c193 0 350 157 350 350s-157 350 -350 350h-250zM800 1600v-900h350c248 0 450 202 450 450s-202 450 -450 450h-350z" />
    <glyph glyph-name="309" unicode="&#xe135;" horiz-adv-x="1600" 
d="M600 3100l900 -900l-600 -600l600 -600l-900 -900v1200l-450 -450l-150 150l600 600l-600 600l150 150l450 -450v1200zM800 2600v-800l400 400zM800 1400v-800l400 400z" />
    <glyph glyph-name="310" unicode="&#xe136;" horiz-adv-x="2600" 
d="M0 3100h1600c442 0 800 -358 800 -800c0 -279 -143 -526 -359 -669c328 -134 559 -455 559 -831c0 -497 -403 -900 -900 -900h-1700v200h200c110 0 200 90 200 200v2400c0 110 -90 200 -200 200h-200v200zM900 2900v-1200h400c331 0 600 269 600 600s-269 600 -600 600
h-400zM900 1500v-1400h500c387 0 700 313 700 700s-313 700 -700 700h-500z" />
    <glyph glyph-name="311" unicode="&#xe137;" horiz-adv-x="3000" 
d="M300 3200h2000v-1300l200 200l200 -200v1300h150c83 0 150 -67 150 -150v-2250h-2700v2400zM200 3194v-2397c-77 -6 -147 -37 -200 -88v2241c0 121 86 221 200 244zM225 700h2775v-200h-2650c-83 0 -150 -67 -150 -150s67 -150 150 -150h2650v-200h-2750
c-138 0 -250 112 -250 250v225c0 124 101 225 225 225z" />
    <glyph glyph-name="312" unicode="&#xe138;" horiz-adv-x="1400" 
d="M50 3100h1300c28 0 50 -22 50 -50v-3100c0 -28 -18 -38 -40 -22l-619 444c-22 16 -60 16 -82 0l-618 -444c-22 -16 -41 -6 -41 22v3100c0 28 22 50 50 50z" />
    <glyph glyph-name="313" unicode="&#xe139;" 
d="M0 3100h3200v-300h-3200v300zM100 2700h3000v-2550c0 -28 -22 -50 -50 -50h-2900c-28 0 -50 22 -50 50v2550zM1250 2400c-28 0 -50 -22 -50 -50v-200c0 -28 22 -50 50 -50h700c28 0 50 22 50 50v200c0 28 -22 50 -50 50h-700z" />
    <glyph glyph-name="314" unicode="&#xe13a;" 
d="M1300 3200c110 0 200 -90 200 -200v-250c0 -83 -67 -150 -150 -150c-28 0 -50 -22 -50 -50s22 -50 50 -50c83 0 150 -67 150 -150v-600c0 -83 -67 -150 -150 -150h-300c-28 0 -50 -22 -50 -50s22 -50 50 -50h300c83 0 150 -67 150 -150v-950c0 -221 -179 -400 -400 -400
c-587 0 -903 430 -1031 975c24 15 51 25 81 25c28 0 50 22 50 50s-22 50 -50 50c-48 0 -91 21 -119 56c-22 144 -31 295 -31 444c0 114 11 229 31 341c28 36 70 59 119 59c28 0 50 22 50 50s-22 50 -50 50s-55 8 -78 22c165 592 605 1078 1228 1078zM1800 3200
c623 0 1063 -486 1228 -1078c-23 -14 -50 -22 -78 -22s-50 -22 -50 -50s22 -50 50 -50c49 0 92 -23 119 -59c20 -112 31 -227 31 -341c0 -149 -9 -300 -31 -444c-28 -35 -71 -56 -119 -56c-28 0 -50 -22 -50 -50s22 -50 50 -50c30 0 57 -10 81 -25
c-128 -545 -444 -975 -1031 -975c-221 0 -400 179 -400 400v950c0 83 67 150 150 150h300c28 0 50 22 50 50s-22 50 -50 50h-300c-83 0 -150 67 -150 150v600c0 83 67 150 150 150c28 0 50 22 50 50s-22 50 -50 50c-83 0 -150 67 -150 150v250c0 110 90 200 200 200z
M1250 3000c-28 0 -50 -22 -50 -50s-22 -50 -50 -50c-193 0 -350 -157 -350 -350s157 -350 350 -350c28 0 50 22 50 50s-22 50 -50 50c-138 0 -250 112 -250 250s112 250 250 250c83 0 150 67 150 150c0 28 -22 50 -50 50zM1850 3000c-28 0 -50 -22 -50 -50
c0 -83 67 -150 150 -150c138 0 250 -112 250 -250s-112 -250 -250 -250c-28 0 -50 -22 -50 -50s22 -50 50 -50c193 0 350 157 350 350s-157 350 -350 350c-28 0 -50 22 -50 50s-22 50 -50 50zM1350 2100c-28 0 -50 -22 -50 -50c0 -83 -67 -150 -150 -150h-300
c-193 0 -350 -157 -350 -350s157 -350 350 -350c28 0 50 22 50 50s-22 50 -50 50c-138 0 -250 112 -250 250s112 250 250 250h300c138 0 250 112 250 250c0 28 -22 50 -50 50zM1750 2100c-28 0 -50 -22 -50 -50c0 -138 112 -250 250 -250h300c138 0 250 -112 250 -250
s-112 -250 -250 -250c-28 0 -50 -22 -50 -50s22 -50 50 -50c193 0 350 157 350 350s-157 350 -350 350h-300c-83 0 -150 67 -150 150c0 28 -22 50 -50 50zM1150 1300c-28 0 -50 -22 -50 -50s22 -50 50 -50c83 0 150 -67 150 -150s-67 -150 -150 -150h-150
c-110 0 -200 -90 -200 -200v-150c0 -28 22 -50 50 -50s50 22 50 50v150c0 55 45 100 100 100h150c138 0 250 112 250 250s-112 250 -250 250zM1950 1300c-138 0 -250 -112 -250 -250s112 -250 250 -250h150c55 0 100 -45 100 -100v-150c0 -28 22 -50 50 -50s50 22 50 50v150
c0 110 -90 200 -200 200h-150c-83 0 -150 67 -150 150s67 150 150 150c28 0 50 22 50 50s-22 50 -50 50zM1150 600c-83 0 -150 -67 -150 -150s-67 -150 -150 -150s-150 67 -150 150c0 28 -22 50 -50 50s-50 -22 -50 -50c0 -138 112 -250 250 -250s250 112 250 250
c0 28 22 50 50 50s50 -22 50 -50s22 -50 50 -50s50 22 50 50c0 83 -67 150 -150 150zM1950 600c-83 0 -150 -67 -150 -150c0 -28 22 -50 50 -50s50 22 50 50s22 50 50 50s50 -22 50 -50c0 -138 112 -250 250 -250s250 112 250 250c0 28 -22 50 -50 50s-50 -22 -50 -50
c0 -83 -67 -150 -150 -150s-150 67 -150 150s-67 150 -150 150z" />
    <glyph glyph-name="315" unicode="&#xe13b;" 
d="M1300 2900h600c55 0 100 -45 100 -100v-200h1150c28 0 50 -22 50 -50v-750c0 -54 -69 -100 -150 -100h-1050v75c0 69 -56 125 -125 125h-550c-69 0 -125 -56 -125 -125v-75h-1050c-81 0 -150 46 -150 100v750c0 28 22 50 50 50h1150v200c0 55 45 100 100 100zM1300 2800
v-200h600v200h-600zM1325 1800h550c14 0 25 -11 25 -25v-250c0 -14 -11 -25 -25 -25h-550c-14 0 -25 11 -25 25v250c0 14 11 25 25 25zM0 1641c42 -25 94 -41 150 -41h1050v-75c0 -69 56 -125 125 -125h550c69 0 125 56 125 125v75h1050c56 0 108 16 150 41v-1391
c0 -28 -22 -50 -50 -50h-3100c-28 0 -50 22 -50 50v1391z" />
    <glyph glyph-name="316" unicode="&#xe13c;" horiz-adv-x="2200" 
d="M769 1500c82 -314 45 -690 -275 -1100h1606v-400h-2100v434l59 57c404 404 399 632 329 890c-11 39 -25 79 -41 119h-347v200h259c-78 175 -156 368 -156 600c0 495 405 900 900 900c477 0 900 -355 900 -850h-400c0 278 -204 450 -500 450c-278 0 -500 -222 -500 -500
c0 -160 108 -354 200 -600h497v-200h-431z" />
    <glyph glyph-name="317" unicode="&#xe13d;" 
d="M50 3200h3100c28 0 50 -22 50 -50v-2250h-200v1800h-2800v-1800h-200v2250c0 28 22 50 50 50zM300 3000l-100 -50l100 -50v100zM400 3000v-100l100 50zM650 3000c-28 0 -50 -22 -50 -50s22 -50 50 -50h2300c28 0 50 22 50 50s-22 50 -50 50h-2300zM300 2600h400v-100
h-300v-300h-100v400zM2500 2600h400v-400h-100v300h-300v100zM1400 2200h400v-1200h250c28 0 37 -17 19 -38l-438 -524c-18 -21 -44 -21 -62 0l-438 524c-18 21 -9 38 19 38h250v1200zM300 400h100v-300h300v-100h-400v400zM2800 400h100v-400h-400v100h300v300z" />
    <glyph glyph-name="318" unicode="&#xe13e;" 
d="M1600 3100c584 0 1096 -314 1375 -781h-1375c-387 0 -712 -267 -797 -631l-459 803c293 370 747 609 1256 609zM206 2288l678 -1188c145 -259 419 -419 716 -419c77 0 154 11 228 32l-472 -794c-767 118 -1356 781 -1356 1581c0 286 74 555 206 788zM1600 900
c-310 0 -600 245 -600 600c0 331 269 600 600 600s600 -269 600 -600c0 -346 -288 -600 -600 -600zM2160 2100h925c75 -185 115 -388 115 -600c0 -884 -716 -1600 -1600 -1600l688 1150c88 134 131 290 131 450c0 231 -93 446 -259 600z" />
    <glyph glyph-name="319" unicode="&#xe13f;" 
d="M206 2306c-10 141 10 258 47 356c1 0 3 -11 3 -15c4 32 25 63 35 84c1 1 0 -23 0 -25c3 8 4 17 9 31c26 82 66 107 66 107c2 -47 19 -141 50 -172c2 -1 3 8 6 6c18 -30 38 -55 59 -78c273 306 668 500 1109 500c345 0 664 -118 916 -316c11 -6 21 -17 31 -25
c24 -17 50 -32 72 -50c-10 79 -15 116 -15 116s131 -64 218 -200c-6 32 -9 50 -9 50c4 -5 11 -8 16 -13c87 -71 166 -206 215 -340c60 -165 75 -345 57 -516c34 115 60 187 62 191c15 -44 29 -89 35 -135c46 -301 -63 -603 -163 -781c-30 -53 -72 -105 -116 -159
c-38 -72 -82 -140 -131 -204c134 75 256 158 281 294c-17 -110 -32 -229 -190 -384c-252 -248 -487 -276 -622 -353c-19 -11 -35 -24 -50 -38c79 1 287 29 369 125c-241 -329 -938 -287 -938 -287s11 -30 72 -41c-196 -7 -462 78 -462 78s49 -45 128 -68
c-719 162 -1007 595 -1116 781c-143 244 -184 470 -194 653c-19 -86 -29 -145 -31 -163c-16 264 10 444 47 560c-45 -83 -68 -147 -72 -160c44 240 98 387 150 475c13 24 31 57 56 91v25zM1590 3000c-407 0 -770 -176 -1024 -456c98 28 211 34 346 0h4c14 19 27 36 43 50
c1 -8 0 -9 0 -16c14 32 71 73 94 85c-1 -7 -3 -9 -3 -13c48 34 105 64 153 75c7 2 -22 -12 -31 -22c23 12 31 16 75 25s96 -4 87 -9c-7 -4 -47 -22 -53 -28c-5 -5 25 2 19 -3c-92 -75 -152 -169 -181 -275c24 -59 79 -126 165 -125c67 1 116 -2 153 -4c48 1 73 -2 103 -9
c36 -14 24 -79 13 -106c-14 -34 -34 -48 -59 -75c-43 -45 -234 -133 -282 -191v-3c4 -7 8 -12 10 -19c-10 9 -20 4 -13 -6c8 -11 8 -19 13 -50c7 -45 -5 -69 -10 -94c-17 10 -33 16 -47 22c39 -23 41 -37 41 -59c-12 18 -87 49 -116 59c-2 0 -4 1 -6 0c6 -8 16 -25 16 -25
s-13 8 -35 16c-41 -23 -62 -71 -62 -107c0 -45 -9 -118 144 -209c3 -2 -24 5 -22 3c14 -10 72 -36 103 -47c11 -6 -35 5 -25 0s21 -8 31 -12c162 -64 260 27 375 56c150 38 260 -32 306 -84s6 -113 -53 -100s-124 -40 -234 -116c-109 -75 -297 -106 -475 -62
c44 -41 117 -126 175 -144c67 -21 162 -11 200 -53c-38 23 -91 10 -125 6c231 -116 406 -84 447 -78c100 15 144 50 162 62c-4 -24 -20 -50 -40 -56c21 -14 61 38 106 84c12 13 27 23 38 32l-19 -28c13 10 20 20 28 31c19 26 50 37 50 37c6 -14 -10 -57 12 -59
c31 -5 103 43 172 194c91 200 97 340 97 340c11 -25 32 -67 38 -122c30 119 71 217 22 666c46 -40 111 -157 146 -231c24 457 -203 757 -340 859c91 -7 224 -91 303 -172c-40 85 -95 178 -191 278c-234 179 -527 288 -844 288z" />
    <glyph glyph-name="320" unicode="&#xe140;" 
d="M2440 3084c14 3 86 16 181 16c286 -2 764 -117 397 -947c115 -206 181 -444 181 -697c0 -63 -4 -126 -12 -187h-2056c0 -291 212 -518 475 -588c283 -75 605 35 756 291h753c-160 -451 -552 -809 -1031 -919c-321 -74 -665 -33 -960 113c-178 -92 -1452 -709 -1043 753
c40 120 66 157 90 206c240 497 557 930 953 1284c-151 -65 -405 -227 -765 -631c95 411 342 720 665 913c246 147 533 216 819 200c183 86 383 151 597 193zM2931 2869c-186 125 -511 -5 -650 -72c292 -113 539 -321 703 -584c171 442 71 572 -53 656zM2427 1663
c-12 347 -319 581 -628 593c-68 2 -134 -6 -200 -24c-258 -70 -462 -297 -472 -569h1300zM402 982c-223 -459 -204 -710 -103 -813c203 -209 588 -29 732 50c-290 172 -517 440 -629 763z" />
    <glyph glyph-name="321" unicode="&#xe141;" 
d="M1600 3200c884 0 1600 -716 1600 -1600s-716 -1600 -1600 -1600s-1600 716 -1600 1600s716 1600 1600 1600zM1600 3100c-827 0 -1500 -673 -1500 -1500s673 -1500 1500 -1500s1500 673 1500 1500s-673 1500 -1500 1500zM1581 3012h38v-287h-38v287zM1478 3009l16 -147
l-35 -6l-15 147zM1722 3009l34 -6l-15 -147l-35 6zM1341 2991l56 -285l-35 -6l-56 281zM1859 2991l35 -10l-56 -281l-35 6zM1206 2956l44 -140l-34 -10l-44 141zM1994 2956l34 -9l-44 -141l-34 10zM1075 2912l113 -265l-35 -16l-109 269zM2125 2912l31 -12l-109 -269l-35 16
zM950 2853l69 -128l-31 -19l-69 131zM2250 2853l31 -16l-69 -131l-31 19zM831 2784l160 -240l-32 -19l-159 240zM2369 2784l31 -19l-159 -240l-32 19zM719 2703l90 -113l-25 -25l-93 116zM2481 2703l29 -22l-94 -116l-25 25zM613 2612l206 -206l-25 -25l-206 206zM2594 2600
l-803 -1178l-1185 -822l822 1168zM519 2509l115 -94l-24 -25l-113 91zM2681 2509l22 -28l-112 -91l-25 25zM434 2400l241 -160l-19 -31l-240 159zM2766 2400l19 -32l-241 -159l-19 31zM363 2281l131 -69l-19 -31l-128 69zM2838 2281l15 -31l-128 -69l-19 31zM300 2156
l269 -110l-16 -34l-265 113zM2900 2156l12 -31l-265 -113l-16 34zM253 2028l141 -44l-10 -34l-140 43zM2947 2028l9 -35l-140 -43l-10 34zM219 1893l281 -56l-6 -34l-285 56zM2981 1893l10 -34l-285 -56l-6 34zM197 1756l147 -16l-6 -34l-147 16zM3003 1756l7 -34l-147 -16
l-7 34zM188 1618h287v-37h-287v37zM2725 1618h288v-37h-288v37zM338 1493l6 -34l-147 -16l-6 35zM2863 1493l147 -15l-7 -35l-147 16zM494 1396l6 -34l-281 -56l-10 34zM2706 1396l285 -56l-10 -34l-281 56zM384 1250l10 -35l-141 -44l-9 35zM2816 1250l140 -44l-9 -35
l-141 44zM553 1187l16 -34l-269 -110l-12 32zM2647 1187l266 -112l-13 -32l-268 110zM475 1018l19 -31l-131 -69l-16 32zM2725 1018l128 -68l-15 -32l-132 69zM656 990l19 -31l-240 -159l-19 31zM2544 990l241 -159l-19 -31l-241 159zM2406 818l207 -206l-25 -25l-206 206z
M610 809l25 -25l-116 -94l-22 28zM2591 809l112 -91l-21 -28l-116 94zM960 674l31 -18l-159 -241l-32 19zM2241 674l159 -240l-31 -19l-159 241zM784 634l26 -25l-91 -113l-28 22zM2416 634l94 -116l-29 -22l-90 113zM1153 568l35 -15l-113 -266l-31 13zM2047 568l109 -268
l-31 -13l-112 266zM1363 500l34 -7l-56 -284l-35 9zM1838 500l56 -282l-34 -9l-57 284zM988 493l31 -19l-69 -128l-31 16zM2213 493l68 -131l-31 -16l-69 128zM1581 474h38v-287h-38v287zM1216 393l34 -9l-44 -141l-34 9zM1984 393l44 -141l-34 -9l-44 141zM1460 343l34 -6
l-16 -147l-34 6zM1741 343l15 -147l-34 -6l-16 147z" />
    <glyph glyph-name="322" unicode="&#xe142;" 
d="M50 2900h3100c28 0 50 -22 50 -50v-2600c0 -28 -22 -50 -50 -50h-3100c-28 0 -50 22 -50 50v2600c0 28 22 50 50 50zM300 2700l-100 -50l100 -50v100zM400 2700v-100l100 50zM650 2700c-28 0 -50 -22 -50 -50s22 -50 50 -50h2300c28 0 50 22 50 50s-22 50 -50 50h-2300z
M200 2400v-2000h2800v2000h-2800zM300 2300h400v-100h-300v-300h-100v400zM2500 2300h400v-400h-100v300h-300v100zM300 900h100v-300h300v-100h-400v400zM2800 900h100v-400h-400v100h300v300z" />
    <glyph glyph-name="323" unicode="&#xe143;" 
d="M50 2900h3100c28 0 50 -22 50 -50v-2600c0 -28 -22 -50 -50 -50h-3100c-28 0 -50 22 -50 50v2600c0 28 22 50 50 50zM300 2700l-100 -50l100 -50v100zM400 2700v-100l100 50zM650 2700c-28 0 -50 -22 -50 -50s22 -50 50 -50h2300c28 0 50 22 50 50s-22 50 -50 50h-2300z
M200 2400v-2000h2800v2000h-2800z" />
    <glyph glyph-name="324" unicode="&#xe144;" 
d="M1656 1128c-86 242 -300 425 -553 472l31 66c37 74 121 173 188 222l1656 1224c45 33 89 58 144 51c71 -9 45 -112 -9 -185l-1225 -1656c-49 -67 -148 -151 -222 -188zM547 944c32 225 229 399 481 365c234 -32 401 -247 369 -481l-3 -28
c-103 -621 -802 -1001 -1394 -688c295 179 499 485 547 832z" />
    <glyph glyph-name="325" unicode="&#xe145;" horiz-adv-x="3000" 
d="M407 2651c0 24 20 49 48 49c9 0 23 -4 30 -10l300 -200l22 -12v-294l244 -81c-85 182 -37 424 94 584c-41 121 -95 239 -175 319c-59 59 -128 94 -213 94c-2 0 -5 -1 -7 -1c-28 0 -51 23 -51 51c0 23 19 50 45 50h3h5h5c259 0 392 -241 465 -434c68 52 148 84 238 84
c54 0 104 -11 150 -31c73 170 211 381 447 381c28 0 50 -22 50 -50s-22 -50 -50 -50c-197 0 -298 -185 -360 -334c185 -145 266 -446 166 -663l244 81v294c110 68 214 142 322 212c7 6 16 11 28 11c28 0 50 -22 50 -50c0 -15 -10 -34 -22 -42l-278 -184v-313
c-111 -32 -216 -71 -325 -106c51 -52 96 -113 137 -181l222 72c4 2 9 4 16 4c16 0 36 -12 44 -26l290 -485l282 -93c23 -4 41 -27 41 -50c0 -28 -22 -50 -50 -50c-7 0 -17 3 -23 6l-300 100c-10 3 -23 13 -28 22l-278 465l-165 -56c81 -168 131 -372 137 -591l369 -147
c18 -7 32 -27 32 -46c0 -5 -2 -14 -4 -19l-288 -772l75 -75c13 -8 24 -28 24 -43c0 -28 -22 -50 -50 -50c-15 0 -34 11 -42 24l-100 100c-9 8 -16 24 -16 36c0 5 1 12 3 17l281 753l-287 116c-17 -441 -209 -812 -478 -963c-116 88 -219 244 -219 426v1250
c0 28 -22 50 -50 50s-50 -22 -50 -50v-1250c0 -182 -103 -338 -219 -426c-269 151 -461 522 -478 963l-287 -116l281 -753c2 -5 3 -12 3 -17c0 -12 -7 -28 -16 -36l-100 -100c-8 -13 -27 -24 -42 -24c-28 0 -50 22 -50 50c0 15 11 35 24 43l75 75l-288 772c-2 5 -4 14 -4 19
c0 19 14 39 32 46l369 147c6 219 57 423 138 591l-166 56l-278 -465c-5 -9 -18 -19 -28 -22l-300 -100c-6 -3 -16 -6 -23 -6c-28 0 -50 22 -50 50c0 23 18 46 41 50l282 93l290 485c7 13 24 25 41 25c5 0 14 -1 19 -3l222 -72c41 68 86 129 137 181l-290 97l-35 9v313
l-278 184c-12 8 -22 27 -22 42z" />
    <glyph glyph-name="326" unicode="&#xe146;" 
d="M200 3200h2700v-100c-55 0 -100 -45 -100 -100v-2400h-1100v500h-300v-500h-1100v2400c0 55 -45 100 -100 100v100zM500 2700v-500h500v500h-500zM1300 2700v-500h500v500h-500zM2100 2700v-500h500v500h-500zM500 1900v-500h500v500h-500zM1300 1900v-500h500v500h-500z
M2100 1900v-500h500v500h-500zM200 500h2700v-100h-2700v100zM100 297h2900v-100h-2900v100zM0 97h3100v-100h-3100v100z" />
    <glyph glyph-name="327" unicode="&#xe147;" 
d="M2900 3100h250c28 0 50 -22 50 -50v-2100c0 -28 -22 -50 -50 -50h-250v2200zM2800 3088v-2172h-3l-1644 534c-107 34 -165 -72 -137 -138l465 -1165c10 -26 -3 -47 -31 -47h-300c-28 0 -59 21 -69 47l-540 1353h-291c-28 0 -50 22 -50 50v50h-150c-28 0 -50 22 -50 50
v700c0 28 22 50 50 50h150v50c0 28 22 50 50 50h700c28 0 71 7 97 16l1747 568c2 0 4 4 6 4z" />
    <glyph glyph-name="328" unicode="&#xe148;" horiz-adv-x="2400" 
d="M100 3200h2200c55 0 100 -45 100 -100v-3000c0 -55 -45 -100 -100 -100h-2200c-55 0 -100 45 -100 100v3000c0 55 45 100 100 100zM300 2900v-500h1800v500h-1800zM300 2200v-100h1800v100h-1800zM300 1900v-100h300v100h-300zM800 1900v-100h300v100h-300zM1300 1900
v-100h300v100h-300zM1800 1900v-100h300v100h-300zM300 1600v-300h300v300h-300zM800 1600v-300h300v300h-300zM1300 1600v-300h300v300h-300zM1800 1600v-300h300v300h-300zM300 1100v-300h300v300h-300zM800 1100v-300h300v300h-300zM1300 1100v-300h300v300h-300z
M1800 1100v-800h300v800h-300zM300 600v-300h300v300h-300zM800 600v-300h300v300h-300zM1300 600v-300h300v300h-300z" />
    <glyph glyph-name="329" unicode="&#xe149;" horiz-adv-x="3000" 
d="M50 3200h2900c28 0 50 -22 50 -50v-550h-3000v550c0 28 22 50 50 50zM0 2500h3000v-2450c0 -28 -22 -50 -50 -50h-2900c-28 0 -50 22 -50 50v2450zM800 2200v-400h400v400h-400zM1300 2200v-400h400v400h-400zM1800 2200v-400h400v400h-400zM2300 2200v-400h400v400h-400
zM300 1700v-400h400v400h-400zM800 1700v-400h400v400h-400zM1300 1700v-400h400v400h-400zM1800 1700v-400h400v400h-400zM2300 1700v-400h400v400h-400zM300 1200v-400h400v400h-400zM800 1200v-400h400v400h-400zM1300 1200v-400h400v400h-400zM1800 1200v-400h400v400
h-400zM2300 1200v-400h400v400h-400zM300 700v-400h400v400h-400zM800 700v-400h400v400h-400zM1300 700v-400h400v400h-400z" />
    <glyph glyph-name="330" unicode="&#xe14a;" 
d="M300 2600h300v-100h100v100h400v-100h100v50c0 28 45 50 100 50h1800c55 0 100 -45 100 -100v-1800c0 -55 -45 -100 -100 -100h-3000c-55 0 -100 45 -100 100v1700c0 55 45 100 100 100h200v100zM2412 2500c-7 0 -12 -5 -12 -12v-376c0 -7 5 -12 12 -12h476
c7 0 12 5 12 12v376c0 7 -5 12 -12 12h-476zM1812 2400c-7 0 -12 -5 -12 -12v-176c0 -7 5 -12 12 -12h376c7 0 12 5 12 12v176c0 7 -5 12 -12 12h-376zM1800 2000c-298 0 -544 -219 -591 -503c-3 0 -6 3 -9 3h-100c-55 0 -100 -45 -100 -100s45 -100 100 -100h100
c3 0 6 3 9 3c47 -285 293 -503 591 -503c331 0 600 269 600 600s-269 600 -600 600zM1800 1900c276 0 500 -224 500 -500s-224 -500 -500 -500s-500 224 -500 500s224 500 500 500zM1800 1800c-221 0 -400 -179 -400 -400c0 -28 22 -50 50 -50s50 22 50 50
c0 165 135 300 300 300c28 0 50 22 50 50s-22 50 -50 50z" />
    <glyph glyph-name="331" unicode="&#xe14b;" 
d="M1550 3100h700c28 0 63 -18 78 -41l344 -518c15 -23 50 -41 78 -41h400c28 0 50 -22 50 -50v-2300c0 -28 -22 -50 -50 -50h-3100c-28 0 -50 22 -50 50v1750c0 331 269 600 600 600h450c28 0 63 18 78 41l344 518c15 23 50 41 78 41zM500 2100c-55 0 -100 -45 -100 -100
s45 -100 100 -100s100 45 100 100s-45 100 -100 100zM1900 2100c-441 0 -800 -359 -800 -800s359 -800 800 -800c408 0 745 305 794 700h6c55 0 100 45 100 100s-45 100 -100 100h-6c-49 395 -386 700 -794 700zM1900 1900c331 0 600 -269 600 -600s-269 -600 -600 -600
s-600 269 -600 600s269 600 600 600zM1900 1800c-276 0 -500 -224 -500 -500c0 -28 22 -50 50 -50s50 22 50 50c0 221 179 400 400 400c28 0 50 22 50 50s-22 50 -50 50z" />
    <glyph glyph-name="332" unicode="&#xe14c;" 
d="M29 2500h3100c30 0 39 -21 19 -41l-1537 -1918c-20 -20 -43 -20 -63 0l-1537 1918c-20 20 -12 41 18 41z" />
    <glyph glyph-name="333" unicode="&#xe14d;" horiz-adv-x="2000" 
d="M1934 3169c16 16 40 15 40 -19v-3100c0 -30 -20 -39 -40 -19l-1919 1538c-20 20 -20 42 0 62z" />
    <glyph glyph-name="334" unicode="&#xe14e;" horiz-adv-x="2000" 
d="M0 3050c0 30 21 39 41 19l1918 -1538c20 -20 20 -42 0 -62l-1918 -1538c-20 -20 -41 -11 -41 19v3100z" />
    <glyph glyph-name="335" unicode="&#xe14f;" 
d="M1580 2575c10 0 21 -6 31 -16l1537 -1918c20 -20 12 -41 -18 -41h-3100c-30 0 -39 21 -19 41l1537 1918c10 10 22 16 32 16z" />
    <glyph glyph-name="336" unicode="&#xe150;" 
d="M2000 2300h600c330 0 600 -270 600 -600s-270 -600 -600 -600h-2000v-300l-600 450l600 450v-300h2000c167 0 300 133 300 300s-133 300 -300 300h-600v300z" />
    <glyph glyph-name="337" unicode="&#xe151;" 
d="M100 2900h300c54 0 96 -32 109 -84v-3l57 -219c10 4 21 6 34 6h2500c55 0 92 -43 81 -97l-262 -1306c-11 -54 -64 -97 -119 -97h-1800c-22 0 -43 7 -63 19c2 -29 1 -58 -9 -85l-128 -337c-16 2 -33 3 -50 3c-20 0 -41 -3 -60 -6l144 378c4 11 10 54 7 66l-429 1653
c0 2 -10 9 -12 9h-200c0 -55 -45 -100 -100 -100s-100 45 -100 100s45 100 100 100zM750 600c138 0 250 -112 250 -250s-112 -250 -250 -250s-250 112 -250 250s112 250 250 250zM2650 600c138 0 250 -112 250 -250s-112 -250 -250 -250s-250 112 -250 250s112 250 250 250z
M1066 500h1268c-15 -31 -26 -65 -31 -100h-1206c-5 35 -16 69 -31 100z" />
    <glyph glyph-name="338" unicode="&#xe152;" 
d="M50 2800h1900c28 0 50 -22 50 -50v-550h-900v-900h-650c-28 0 -64 -14 -84 -34l-332 -332c-20 -20 -34 -12 -34 16v1800c0 28 22 50 50 50zM1250 2100h1900c28 0 50 -22 50 -50v-1800c0 -28 -14 -36 -34 -16l-332 332c-20 20 -56 34 -84 34h-1500c-28 0 -50 22 -50 50
v1400c0 28 22 50 50 50z" />
    <glyph glyph-name="339" unicode="&#xe153;" 
d="M2906 2762l219 -206c-650 -687 -1302 -1372 -1953 -2059l-106 -113l-1066 1066l212 212c282 -282 565 -564 847 -846c616 649 1232 1296 1847 1946z" />
    <glyph glyph-name="340" unicode="&#xe154;" 
d="M2713 2875l437 -413c-619 -656 -1237 -1312 -1856 -1968l-213 -225l-1081 1081l425 425l644 -644c548 581 1096 1163 1644 1744z" />
    <glyph glyph-name="341" unicode="&#xe155;" 
d="M0 2825l1600 -1600l1600 1600v-850l-1600 -1600l-1600 1600v850z" />
    <glyph glyph-name="342" unicode="&#xe156;" horiz-adv-x="2500" 
d="M1600 3200h850l-1600 -1600l1600 -1600h-850l-1600 1600z" />
    <glyph glyph-name="343" unicode="&#xe157;" horiz-adv-x="2500" 
d="M0 3200h850l1600 -1600l-1600 -1600h-850l1600 1600z" />
    <glyph glyph-name="344" unicode="&#xe158;" 
d="M1600 2825l1600 -1600v-850l-1600 1600l-1600 -1600v850z" />
    <glyph glyph-name="345" unicode="&#xe159;" 
d="M1600 3200c884 0 1600 -716 1600 -1600s-716 -1600 -1600 -1600s-1600 716 -1600 1600s716 1600 1600 1600zM2291 2313l-997 -1094l-394 394l-213 -213l619 -619l1206 1328z" />
    <glyph glyph-name="346" unicode="&#xe15a;" 
d="M1600 3200c884 0 1600 -716 1600 -1600s-716 -1600 -1600 -1600s-1600 716 -1600 1600s716 1600 1600 1600zM1100 2312l-212 -212l500 -500l-500 -500l212 -212l500 500l500 -500l212 212l-500 500l500 500l-212 212l-500 -500z" />
    <glyph glyph-name="347" unicode="&#xe15b;" horiz-adv-x="2400" 
d="M1200 3200c165 0 300 -135 300 -300v-200h200c166 0 300 -134 300 -300v-100h-1600v100c0 166 134 300 300 300h200v200c0 165 135 300 300 300zM1200 3000c-55 0 -100 -45 -100 -100s45 -100 100 -100s100 45 100 100s-45 100 -100 100zM50 2600h306
c-34 -59 -56 -127 -56 -200v-200h1800v200c0 73 -22 141 -56 200h306c28 0 50 -22 50 -50v-2500c0 -28 -22 -50 -50 -50h-2300c-28 0 -50 22 -50 50v2500c0 28 22 50 50 50z" />
    <glyph glyph-name="348" unicode="&#xe15c;" 
d="M1600 3200c882 0 1600 -718 1600 -1600s-718 -1600 -1600 -1600s-1600 718 -1600 1600s718 1600 1600 1600zM1600 2900c-720 0 -1300 -580 -1300 -1300s580 -1300 1300 -1300s1300 580 1300 1300s-580 1300 -1300 1300zM1500 2500h200v-862c210 -96 420 -193 631 -288
l-81 -181c-214 96 -426 193 -640 290l-57 25l-619 -618c-8 -13 -27 -24 -42 -24c-28 0 -50 22 -50 50c0 15 11 34 24 42l634 635v931z" />
    <glyph glyph-name="349" unicode="&#xe15d;" 
d="M1400 3100c470 0 850 -359 900 -809c190 -40 360 -191 400 -391c280 0 500 -220 500 -500s-220 -500 -500 -500h-1000v209c60 60 100 141 100 241c0 190 -160 350 -350 350s-350 -160 -350 -350c0 -90 40 -181 100 -241v-209h-600c-340 50 -600 350 -600 700
c0 320 210 610 500 700c40 460 430 800 900 800zM1450 1600c138 0 250 -112 250 -250c0 -82 -39 -154 -100 -200v-650h250c30 0 39 -21 19 -41l-388 -518c-20 -20 -42 -20 -62 0l-388 518c-20 20 -11 41 19 41h250v650c-61 46 -100 118 -100 200c0 138 112 250 250 250z" />
    <glyph glyph-name="350" unicode="&#xe15e;" 
d="M1400 3200c470 0 850 -359 900 -809c190 -40 360 -191 400 -391c280 0 500 -220 500 -500s-220 -500 -500 -500h-750l-500 650l-500 -650h-350c-340 50 -600 350 -600 700c0 320 210 610 500 700c40 460 430 800 900 800zM1450 1400l450 -600h-300v-350
c61 -46 100 -118 100 -200c0 -138 -112 -250 -250 -250s-250 112 -250 250c0 82 39 154 100 200v350h-300z" />
    <glyph glyph-name="351" unicode="&#xe15f;" 
d="M1400 2700c466 0 851 -355 897 -809c198 -38 363 -193 403 -391c276 0 500 -224 500 -500s-224 -500 -500 -500h-2100c-340 48 -600 347 -600 700c0 318 209 615 500 700c37 463 428 800 900 800z" />
    <glyph glyph-name="352" unicode="&#xe160;" 
d="M216 1484c-120 153 -216 346 -216 616c0 552 448 1000 1000 1000c412 0 683 -212 844 -466c74 -116 126 -241 147 -403c-171 106 -374 169 -591 169c-536 0 -980 -361 -1081 -857c-36 -18 -70 -37 -103 -59zM1400 2200c466 0 851 -355 897 -809
c198 -38 363 -193 403 -391c276 0 500 -224 500 -500s-224 -500 -500 -500h-2100c-340 48 -600 347 -600 700c0 318 209 615 500 700c37 463 428 800 900 800z" />
    <glyph glyph-name="353" unicode="&#xe161;" 
d="M1706 2700h310c-172 -762 -346 -1522 -519 -2284l-3 -16h-310c172 762 346 1522 519 2284zM1000 2400v-378l-606 -472l606 -472v-378c-314 243 -627 487 -941 731l-59 47v144c319 250 639 498 959 747zM2200 2022v378c314 -243 627 -487 941 -731l59 -47v-144
c-319 -250 -639 -498 -959 -747l-41 -31v378l606 472z" />
    <glyph glyph-name="354" unicode="&#xe162;" 
d="M1269 2803l131 397h397l134 -397c101 -28 196 -65 285 -116l375 185l281 -278l-188 -375c51 -89 91 -187 119 -288l397 -131v-397l-397 -134c-28 -101 -64 -196 -115 -285l184 -375l-278 -281l-375 187c-89 -51 -186 -90 -287 -118l-132 -397h-397l-134 397
c-101 28 -196 64 -285 115l-374 -184l-282 281l188 372c-51 89 -91 186 -119 287l-397 132v397l397 134c28 101 64 196 115 285l-184 374l281 282l372 -188c89 51 187 91 288 119zM1600 2300c-387 0 -700 -313 -700 -700s313 -700 700 -700s700 313 700 700
s-313 700 -700 700z" />
    <glyph glyph-name="355" unicode="&#xe163;" 
d="M772 3200l190 -216c72 9 143 9 213 0l187 216l254 -103l-19 -288c56 -43 106 -93 150 -150l284 19l106 -250l-215 -190c9 -72 9 -143 0 -213l215 -187l-103 -254l-287 19c-43 -56 -93 -106 -150 -150l19 -284l-250 -106l-191 215c-72 -9 -143 -9 -213 0l-187 -215
l-253 103l19 287c-56 43 -106 93 -150 150l-285 -19l-106 250l216 191c-9 72 -9 143 0 213l-216 187l103 253l288 -19c43 56 93 106 150 150l-19 285zM1512 2316c-97 235 -364 368 -628 259c-246 -102 -361 -382 -259 -628s382 -361 628 -259s361 382 259 628zM2300 1600
h197l69 -197c51 -14 98 -34 143 -59l185 94l140 -141l-90 -187c25 -45 45 -94 59 -144l197 -66v-197l-197 -69c-14 -51 -34 -98 -59 -143l94 -185l-141 -140l-187 90c-45 -25 -94 -45 -144 -59l-66 -197h-197l-69 197c-51 14 -98 34 -143 59l-185 -94l-140 141l90 187
c-25 45 -45 94 -59 144l-197 66v200l197 66c14 51 34 98 59 143l-94 185l141 140l187 -90c45 25 94 45 144 59zM2400 1150c-193 0 -350 -157 -350 -350s157 -350 350 -350s350 157 350 350s-157 350 -350 350z" />
    <glyph glyph-name="356" unicode="&#xe164;" 
d="M0 3200h3200v-600h-3200v600zM1400 2300h300v-1200h300l-450 -600l-450 600h300v1200zM0 200h3200v-200h-3200v200z" />
    <glyph glyph-name="357" unicode="&#xe165;" 
d="M0 3200h200v-3200h-200v3200zM2600 3200h600v-3200h-600v3200zM1100 2100v-300h1200v-300h-1200v-300l-600 450z" />
    <glyph glyph-name="358" unicode="&#xe166;" 
d="M0 3200h600v-3200h-600v3200zM3000 3200h200v-3200h-200v3200zM2100 2000l600 -450l-600 -450v300h-1200v300h1200v300z" />
    <glyph glyph-name="359" unicode="&#xe167;" 
d="M0 3200h3200v-200h-3200v200zM1650 2700l450 -600h-300v-1200h-300v1200h-300zM0 600h3200v-600h-3200v600z" />
    <glyph glyph-name="360" unicode="&#xe168;" 
d="M650 3200c357 0 650 -293 650 -650v-350h600v350c0 357 293 650 650 650s650 -293 650 -650s-293 -650 -650 -650h-350v-600h350c357 0 650 -293 650 -650s-293 -650 -650 -650s-650 293 -650 650v350h-600v-350c0 -357 -293 -650 -650 -650s-650 293 -650 650
s293 650 650 650h350v600h-350c-357 0 -650 293 -650 650s293 650 650 650zM650 2900c-195 0 -350 -155 -350 -350s155 -350 350 -350h350v350c0 195 -155 350 -350 350zM2550 2900c-195 0 -350 -155 -350 -350v-350h350c195 0 350 155 350 350s-155 350 -350 350z
M1300 1900v-600h600v600h-600zM650 1000c-195 0 -350 -155 -350 -350s155 -350 350 -350s350 155 350 350v350h-350zM2200 1000v-350c0 -195 155 -350 350 -350s350 155 350 350s-155 350 -350 350h-350z" />
    <glyph glyph-name="361" unicode="&#xe169;" 
d="M50 3000h3100c28 0 50 -22 50 -50v-2800c0 -28 -14 -36 -34 -16l-532 532c-20 20 -56 34 -84 34h-2500c-28 0 -50 22 -50 50v2200c0 28 22 50 50 50z" />
    <glyph glyph-name="362" unicode="&#xe16a;" 
d="M1600 3200c882 0 1600 -718 1600 -1600s-718 -1600 -1600 -1600s-1600 718 -1600 1600s718 1600 1600 1600zM1600 2900c-720 0 -1300 -580 -1300 -1300s580 -1300 1300 -1300s1300 580 1300 1300s-580 1300 -1300 1300zM2300 2300l-400 -1000l-1000 -400l400 1000z
M1600 1800c-110 0 -200 -90 -200 -200s90 -200 200 -200s200 90 200 200s-90 200 -200 200z" />
    <glyph glyph-name="363" unicode="&#xe16b;" 
d="M2950 3000c138 0 250 -112 250 -250s-112 -250 -250 -250c-51 0 -98 18 -138 44l-828 -828c71 -86 116 -195 116 -316c0 -105 -33 -201 -88 -281l513 -428c72 68 169 109 275 109c221 0 400 -179 400 -400s-179 -400 -400 -400s-400 179 -400 400c0 79 23 154 62 216
l-512 428c-90 -89 -214 -144 -350 -144c-276 0 -500 224 -500 500c0 31 3 61 9 91l-737 209c-35 -60 -98 -100 -172 -100c-110 0 -200 90 -200 200s90 200 200 200s200 -90 200 -200v-6l738 -213c73 186 250 319 462 319c121 0 230 -45 316 -116l828 825
c-27 40 -44 89 -44 141c0 138 112 250 250 250z" />
    <glyph glyph-name="364" unicode="&#xe16c;" 
d="M1600 3200c882 0 1600 -718 1600 -1600s-718 -1600 -1600 -1600s-1600 718 -1600 1600s718 1600 1600 1600zM1600 2900v-2600c720 0 1300 580 1300 1300s-580 1300 -1300 1300z" />
    <glyph glyph-name="365" unicode="&#xe16d;" 
d="M1600 3200c882 0 1600 -718 1600 -1600s-718 -1600 -1600 -1600s-1600 718 -1600 1600s718 1600 1600 1600zM1600 2900c-720 0 -1300 -580 -1300 -1300s580 -1300 1300 -1300s1300 580 1300 1300s-580 1300 -1300 1300zM2200 1600c0 333 -267 600 -600 600
c-166 0 -316 -66 -425 -175l-213 213c163 163 390 262 638 262c499 0 900 -401 900 -900s-401 -900 -900 -900c-248 0 -475 99 -638 262l213 213c109 -109 259 -175 425 -175c333 0 600 267 600 600z" />
    <glyph glyph-name="366" unicode="&#xe16e;" 
d="M1600 3200c882 0 1600 -718 1600 -1600s-718 -1600 -1600 -1600s-1600 718 -1600 1600s718 1600 1600 1600zM1600 2900c-720 0 -1300 -580 -1300 -1300s580 -1300 1300 -1300s1300 580 1300 1300s-580 1300 -1300 1300zM700 1600c0 499 401 900 900 900
c248 0 475 -99 638 -262l-213 -213c-109 109 -259 175 -425 175c-333 0 -600 -267 -600 -600s267 -600 600 -600c166 0 316 66 425 175l213 -213c-163 -163 -390 -262 -638 -262c-497 0 -900 402 -900 900z" />
    <glyph glyph-name="367" unicode="&#xe16f;" 
d="M0 3200h3200v-300h-3200v300zM0 2400h1900v-300h-1900v300zM0 1100h3200v-300h-3200v300zM0 300h2300v-300h-2300v300zM2600 300h300v-300h-300v300z" />
    <glyph glyph-name="368" unicode="&#xe170;" 
d="M500 3100h100v-400h-100v400zM700 3100h100v-400h-100v400zM900 3100h100v-400h-100v400zM1100 3100h100v-400h-100v400zM1300 3100h100v-400h-100v400zM1500 3100h100v-400h-100v400zM1700 3100h100v-400h-100v400zM1900 3100h100v-400h-100v400zM2100 3100h100v-400
h-100v400zM2300 3100h100v-400h-100v400zM2500 3100h100v-400h-100v400zM0 2600h400v-100h-400v100zM500 2600h2100v-2100h-2100v2100zM2700 2600h400v-100h-400v100zM0 2400h400v-100h-400v100zM2700 2400h400v-100h-400v100zM0 2200h400v-100h-400v100zM2700 2200h400
v-100h-400v100zM0 2000h400v-100h-400v100zM2700 2000h400v-100h-400v100zM0 1800h400v-100h-400v100zM2700 1800h400v-100h-400v100zM0 1600h400v-100h-400v100zM2700 1600h400v-100h-400v100zM0 1400h400v-100h-400v100zM2700 1400h400v-100h-400v100zM0 1200h400v-100
h-400v100zM2700 1200h400v-100h-400v100zM0 1000h400v-100h-400v100zM2700 1000h400v-100h-400v100zM0 800h400v-100h-400v100zM2700 800h400v-100h-400v100zM0 600h400v-100h-400v100zM2700 600h400v-100h-400v100zM500 400h100v-400h-100v400zM700 400h100v-400h-100v400z
M900 400h100v-400h-100v400zM1100 400h100v-400h-100v400zM1300 400h100v-400h-100v400zM1500 400h100v-400h-100v400zM1700 400h100v-400h-100v400zM1900 400h100v-400h-100v400zM2100 400h100v-400h-100v400zM2300 400h100v-400h-100v400zM2500 400h100v-400h-100v400z
" />
    <glyph glyph-name="369" unicode="&#xe171;" 
d="M100 2600h3000c55 0 100 -45 100 -100v-1800c0 -55 -45 -100 -100 -100h-3000c-55 0 -100 45 -100 100v1800c0 55 45 100 100 100zM100 2300v-300h3000v300h-3000zM325 1700c-14 0 -25 -11 -25 -25v-150c0 -14 11 -25 25 -25h1950c14 0 25 11 25 25v150
c0 14 -11 25 -25 25h-1950zM2425 1700c-14 0 -25 -11 -25 -25v-150c0 -14 11 -25 25 -25h350c14 0 25 11 25 25v150c0 14 -11 25 -25 25h-350zM325 1200c-14 0 -25 -11 -25 -25v-250c0 -14 11 -25 25 -25h450c14 0 25 11 25 25v250c0 14 -11 25 -25 25h-450z" />
    <glyph glyph-name="370" unicode="&#xe172;" 
d="M500 3200h300v-500h1800l500 500l100 -100l-500 -500v-1800h500v-300h-500v-500h-300v500h-1900v1900h-500v300h500v500zM800 2400v-1500l1500 1500h-1500zM2400 2300l-1500 -1500h1500v1500z" />
    <glyph glyph-name="371" unicode="&#xe173;" 
d="M1600 3100c882 0 1600 -718 1600 -1600c0 -602 -337 -1112 -828 -1381l-34 -19h-1476l-34 19c-491 269 -828 779 -828 1381c0 882 718 1600 1600 1600zM1600 2800c-720 0 -1300 -580 -1300 -1300c0 -480 259 -876 647 -1100h1306c388 224 647 620 647 1100
c0 720 -580 1300 -1300 1300zM2500 1500c0 499 -401 900 -900 900c-140 0 -273 -31 -391 -88c-34 22 -61 39 -93 60c144 80 308 128 484 128c551 0 1000 -450 1000 -1000c0 -276 -113 -525 -294 -706c-8 -13 -27 -24 -42 -24c-28 0 -50 22 -50 50c0 15 10 34 23 42
c163 163 263 389 263 638zM700 2400c0 0 1021 -639 1122 -740s105 -277 0 -382s-277 -105 -382 0s-740 1122 -740 1122zM728 1984c21 -33 38 -59 60 -93c-57 -118 -88 -251 -88 -391c0 -249 99 -474 262 -637c13 -8 24 -28 24 -43c0 -28 -22 -50 -50 -50
c-15 0 -34 11 -42 24c-181 181 -294 430 -294 706c0 176 47 340 128 484z" />
    <glyph glyph-name="372" unicode="&#xe174;" horiz-adv-x="2000" 
d="M700 3200h600v-1700h400l-700 -900l-700 900h400v1700zM0 300h2000v-300h-2000v300z" />
    <glyph glyph-name="373" unicode="&#xe175;" horiz-adv-x="2000" 
d="M0 3200h2000v-300h-2000v300zM1000 2600l700 -900h-400v-1700h-600v1700h-400z" />
    <glyph glyph-name="374" unicode="&#xe176;" horiz-adv-x="1800" 
d="M900 3200c497 0 900 -403 900 -900c0 -496 -404 -900 -900 -900s-900 404 -900 900c0 497 403 900 900 900zM0 1866c162 -335 504 -566 900 -566s738 231 900 566v-266c0 -496 -404 -900 -900 -900s-900 404 -900 900v266zM0 1166c162 -335 504 -566 900 -566
s738 231 900 566v-266c0 -497 -403 -900 -900 -900s-900 403 -900 900v266z" />
    <glyph glyph-name="375" unicode="&#xe177;" 
d="M633 2500h2500c28 0 50 -22 50 -50v-1700c0 -28 -22 -50 -50 -50h-2500c-28 0 -63 17 -78 40l-544 819c-15 23 -15 59 0 82l544 818c15 23 50 41 78 41zM1533 2112l-212 -212l300 -300l-300 -300l212 -213l300 300l300 -300l213 213l-300 300l300 300l-213 212l-300 -300
z" />
    <glyph glyph-name="376" unicode="&#xe178;" 
d="M1600 3200l1600 -3200h-3200zM1500 2600l-1200 -2400h2400z" />
    <glyph glyph-name="377" unicode="&#xe179;" 
d="M1600 2900c55 0 100 -45 100 -100s-45 -100 -100 -100s-100 45 -100 100s45 100 100 100zM1025 2784c55 0 100 -45 100 -100s-45 -100 -100 -100s-100 45 -100 100s45 100 100 100zM2175 2784c55 0 100 -45 100 -100s-45 -100 -100 -100s-100 45 -100 100s45 100 100 100
zM541 2459c55 0 100 -45 100 -100s-45 -100 -100 -100s-100 45 -100 100s45 100 100 100zM2659 2459c55 0 100 -45 100 -100s-45 -100 -100 -100s-100 45 -100 100s45 100 100 100zM500 1300c0 577 437 1039 1000 1094v-994c0 -55 45 -100 100 -100s100 45 100 100v994
c561 -51 1000 -520 1000 -1094c0 -608 -492 -1100 -1100 -1100s-1100 492 -1100 1100zM216 1975c55 0 100 -45 100 -100s-45 -100 -100 -100s-100 45 -100 100s45 100 100 100zM2984 1975c55 0 100 -45 100 -100s-45 -100 -100 -100s-100 45 -100 100s45 100 100 100z
M100 1400c55 0 100 -45 100 -100s-45 -100 -100 -100s-100 45 -100 100s45 100 100 100zM3100 1400c55 0 100 -45 100 -100s-45 -100 -100 -100s-100 45 -100 100s45 100 100 100z" />
    <glyph glyph-name="378" unicode="&#xe17a;" horiz-adv-x="2100" 
d="M1700 2954c0 71 62 149 140 149h7h3c83 0 150 -67 150 -150v-3v-356c0 -333 -179 -651 -465 -819l-953 -713l-7 -6l-6 -3c-190 -113 -269 -312 -269 -559v-344c0 -83 -67 -150 -150 -150s-150 67 -150 150v344c0 312 117 632 403 809c322 241 644 481 966 722l6 6l7 3
c198 117 318 330 318 560v356v4zM1435 2200c-39 -38 -84 -67 -128 -100h-822c27 -25 56 -52 91 -69c107 -79 217 -156 325 -234l-253 -188l-232 166c-294 173 -415 503 -415 819v356c0 3 -1 9 -1 12c0 65 59 125 116 138h63c67 -13 122 -78 122 -147v-3v-150h1300v-100
h-1300v-106c0 -32 0 -64 3 -94h1287c-6 -34 -13 -68 -25 -100h-1247c16 -74 41 -141 78 -200h1038zM2001 145c0 -68 -55 -132 -119 -145h-59c-67 13 -122 78 -122 147v3v150h-1300v100h1300v94c0 36 -4 71 -10 106h-1284c4 33 10 67 19 100h1240c-24 73 -61 140 -109 200
h-1019c24 24 49 50 81 69l41 31h800c-29 23 -68 40 -94 66l-300 237l247 185c79 -63 159 -125 238 -188c278 -173 450 -478 450 -806v-344v-5z" />
    <glyph glyph-name="379" unicode="&#xe17b;" horiz-adv-x="2600" 
d="M50 3200h1650v-800h800v-2350c0 -28 -22 -50 -50 -50h-2400c-28 0 -50 22 -50 50v3100c0 28 22 50 50 50zM1800 3200l700 -700h-700v700zM300 2100v-100h1900v100h-1900zM300 1700v-100h1500v100h-1500zM300 1300v-100h1900v100h-1900zM300 900v-100h1700v100h-1700z
M300 500v-100h1900v100h-1900z" />
    </font>
</defs>
</svg>
